Tvoj účet nieje VIP.
Preto sú tvoje funkcie a možnosti značne obmedzené.
Pre aktiváciu VIP klikni sem.

Hobit: Neocekavana cesta / The Hobbit: An Unexpected Journey (2012)(CZ/EN)(2160p 4K BRRip) = CSFD 81% | SkTorrent.eu

Cz-SkTorrent open Tracker, na volné zdielanie súborov. Pridajte sa k nasej komunite a získajte pristup k tisícom torrentov.

  • vysoká rýchlost
  • úplne zdarma
  • prevazne Slovenska a Ceska scena
  • ste tu s nami uz 5 rokov - Dakujeme
  • Vitaj Guest (Login) Ako stahovat
    torrenty?
    Torrenty:
    v1 textová
    v2 obrázková
    v3 online filmy
    Ako sa stat
    Uploaderom
    Online
    Filmy
    Forum
    Pravidlá
    BitTorrent
    klient
    Meno: Heslo:
    Zaregistrovat
    Po zaregistrovaní mozte volne stahovat
    Zabudol som heslo

    Torrent's details
    Hobit: Neocekavana cesta / The Hobbit: An Unexpected Journey (2012)(CZ/EN)(2160p 4K BRRip) = CSFD 81% Názov:Hobit: Neocekavana cesta / The Hobbit: An Unexpected Journey (2012)(CZ/EN)(2160p 4K BRRip) = CSFD 81% Hodnocení: Stiahnut
    Pozriet Online
    Kategória:UHD Filmy Velikost:44.8 GB BitTorrent klient
    Pridaný: Súbory:
    Skontrolován:2021-08-02 Peerov:21 (Seed: 9, Leech: 12)
    Zaner:Dobrodruzny,Fantasy Uploader:Uvidis, az ked budes
    VIP
    Kúp nám Pivo 1,10€

    Kúp nám Pivo
    Podporte nas na Facebooku !
    Pridaj do zalozky
    Pridaj do zalozky






    Hobit: Neocekavana cesta
    The Hobbit: An Unexpected Journey
    (2012)(CZ/EN) = CSFD 81%

    EXTENDED - 2160p 4K HDR10 - HEVC – 35.2 Mb/s Bitrate verzia


    ... na zelanie ...




    Video: 2160p 4K HDR10 - HEVC
    Jazyk: CZ 5.1 DD / EN 7.1 TrueHD / EN 5.1 DD
    Titulky: CZ
    Dobrodruzny / Fantasy
    USA / NWZ  2012
    182 min

    PRODUKCE & HERCI

    Režie: Peter Jackson
    Předloha: John Ronald Reuel Tolkien (kniha)
    Scénář: Fran Walsh, Philippa Boyens, Peter Jackson, Guillermo del Toro
    Kamera: Andrew Lesnie
    Hudba: Howard Shore
    Hrají: Martin Freeman, Ian McKellen, Richard Armitage, Ken Stott, Graham McTavish, William Kircher, James Nesbitt, Stephen Hunter, Dean O'Gorman, Aidan Turner, John Callen, Peter Hambleton, Jed Brophy, Mark Hadlow, Adam Brown, Ian Holm, Elijah Wood, Hugo Weaving, Cate Blanchett, Christopher Lee, Andy Serkis, Sylvester McCoy, Jeffrey Thomas, Lee Pace, Conan Stevens, Manu Bennett, Benedict Cumberbatch, Renee Cataldo, Tim McLachlan, Dan Hennah, Terry Notary, Peter Jackson, Ruby Ashbourne Serkis, Bret McKenzie, Simon Vincent, Mary Nesbitt, Peggy Nesbitt, Jono Kenyon

    OBSAH

    Film sleduje cestu hlavní postavy Bilbo Pytlíka, který se ocitne na dobrodružné výpravě. Cílem cesty je si znovu nárokovat ztracené trpasličí království Erebor. Bilba nečekaně osloví čaroděj Gandalf Šedý, díky kterému se ocitne ve společnosti třinácti trpaslíků v čele s legendárním bojovníkem Thorinem. Cesta do divočiny vede přes tajemné země, kde se to hemží zlobry, skřety a kouzelníky. Ačkoliv cíl jejich výpravy - Osamělá hora, leží na Východě, musí projít nejdříve jeskynním systémem, kde Bilbo potká někoho, kdo mu navždy změní život…Gluma. Skromný Bilbo Pytlík pak sám s Glumem na břehu podzemního jezera objeví nejen hloubku lstivosti a odvahy, která překvapí i jeho samotného, ale také získá do svého vlastnictví Glumův prsten „miláška“, který má nečekané a užitečné možnosti... Jednoduchý zlatý prsten je spojen s osudem celé Středozemě takovým způsobem, jaký Bilbo nemůže zatím ani tušit.

    SCREEN



    TRAILER






    Hlavní
    Formát : Matroska
    Format version : Version 4
    Velikost souboru : 44,8 GiB
    Duration : 3 h 2 min
    Overall bit rate mode : Variable
    Celkový BitRate : 35,2 Mb/s
    Encoded date : UTC 2021-07-31 22:41:15
    Použitý software : mkvmerge v60.0.0 ('Are We Copies?') 64-bit
    Enkódoval : libebml v1.4.2 + libmatroska v1.6.4

    Video
    ID : 1
    Formát : HEVC
    Formát/Info : High Efficiency Video Coding
    Format profile : Main 10@L5.1@High
    HDR format : SMPTE ST 2086, HDR10 compatible
    Codec ID : V_MPEGH/ISO/HEVC
    Duration : 3 h 2 min
    Bit rate : 30,6 Mb/s
    Šířka : 3 840pixely
    Výška : 1 610pixely
    Poměr stran : 2,40:1
    Frame rate mode : Constant
    Frame rate : 23,976 (24000/1001) FPS
    Color space : YUV
    Chroma subsampling : 4:2:0 (Type 2)
    Bit depth : 10 bits
    Bits/(Pixel*Frame) : 0.206
    Stream size : 39,0 GiB (87%)
    Enkódoval : x265 3.4+12-g9103319fc:[Windows][MSVC 1900][64 bit] 10bit
    Default : Ano
    Forced : Ne
    Color range : Limited
    Color primaries : BT.2020
    Transfer characteristics : PQ
    Matrix coefficients : BT.2020 non-constant
    Mastering display color primaries : Display P3
    Mastering display luminance : min: 0.0050 cd/m2, max: 4000 cd/m2
    Maximum Content Light Level : 801 cd/m2
    Maximum Frame-Average Light Level : 188 cd/m2

    Audio #1
    ID : 2
    Formát : MLP FBA 16-ch
    Formát/Info : Meridian Lossless Packing FBA with 16-channel presentation
    Commercial name : Dolby TrueHD with Dolby Atmos
    Codec ID : A_TRUEHD
    Duration : 3 h 2 min
    Bit rate mode : Variable
    Bit rate : 3 403 kb/s
    Maximum bit rate : 5 616 kb/s
    Kanál(y) : 8 kanály
    Channel layout : L R C LFE Ls Rs Lb Rb
    Sampling rate : 48,0 kHz
    Frame rate : 1 200,000 FPS (40 SPF)
    Compression mode : Lossless
    Stream size : 4,34 GiB (10%)
    Jazyk : English
    Default : Ano
    Forced : Ne
    Number of dynamic objects : 11
    Bed channel count : 1 kanál
    Bed channel configuration : LFE

    Audio #2
    ID : 3
    Formát : AC-3
    Formát/Info : Audio Coding 3
    Commercial name : Dolby Digital
    Format settings : Dolby Surround EX
    Codec ID : A_AC3
    Duration : 3 h 2 min
    Bit rate mode : Constant
    Bit rate : 448 kb/s
    Kanál(y) : 6 kanály
    Channel layout : L R C LFE Ls Rs
    Sampling rate : 48,0 kHz
    Frame rate : 31,250 FPS (1536 SPF)
    Compression mode : Lossy
    Stream size : 585 MiB (1%)
    Jazyk : English
    Service kind : Complete Main
    Default : Ne
    Forced : Ne

    Audio #3
    ID : 4
    Formát : AC-3
    Formát/Info : Audio Coding 3
    Commercial name : Dolby Digital
    Codec ID : A_AC3
    Duration : 3 h 2 min
    Bit rate mode : Constant
    Bit rate : 640 kb/s
    Kanál(y) : 6 kanály
    Channel layout : L R C LFE Ls Rs
    Sampling rate : 48,0 kHz
    Frame rate : 31,250 FPS (1536 SPF)
    Compression mode : Lossy
    Video delay : 20 ms
    Stream size : 835 MiB (2%)
    Jazyk : Czech
    Service kind : Complete Main
    Default : Ano
    Forced : Ano

    Text #1
    ID : 5
    Formát : PGS
    Muxing mode : zlib
    Codec ID : S_HDMV/PGS
    Codec ID/Info : Picture based subtitle format used on BDs/HD-DVDs
    Duration : 3 h 0 min
    Bit rate : 23,4 kb/s
    Count of elements : 4378
    Stream size : 30,3 MiB (0%)
    Jazyk : Czech
    Default : Ne
    Forced : Ne

    Text #2
    ID : 6
    Formát : UTF-8
    Codec ID : S_TEXT/UTF8
    Codec ID/Info : UTF-8 Plain Text
    Duration : 2 h 54 min
    Bit rate : 2 b/s
    Count of elements : 81
    Stream size : 2,62 KiB (0%)
    Titul : Forced
    Jazyk : Czech
    Default : Ano
    Forced : Ne

    Menu
    00:00:00.000 : Chapter 01
    00:10:11.569 : Chapter 02
    00:14:08.347 : Chapter 03
    00:17:26.921 : Chapter 04
    00:18:44.290 : Chapter 05
    00:23:16.270 : Chapter 06
    00:27:59.136 : Chapter 07
    00:36:04.537 : Chapter 08
    00:41:16.933 : Chapter 09
    00:46:30.496 : Chapter 10
    00:53:03.847 : Chapter 11
    00:58:07.317 : Chapter 12
    00:59:54.966 : Chapter 13
    01:10:42.071 : Chapter 14
    01:15:01.497 : Chapter 15
    01:18:52.478 : Chapter 16
    01:24:56.591 : Chapter 17
    01:30:34.095 : Chapter 18
    01:34:10.270 : Chapter 19
    01:37:24.130 : Chapter 20
    01:39:03.146 : Chapter 21
    01:41:40.469 : Chapter 22
    01:50:22.199 : Chapter 23
    01:52:59.439 : Chapter 24
    01:59:06.014 : Chapter 25
    02:03:57.180 : Chapter 26
    02:09:51.242 : Chapter 27
    02:23:21.092 : Chapter 28
    02:25:18.543 : Chapter 29
    02:26:30.865 : Chapter 30
    02:30:52.585 : Chapter 31
    02:33:00.213 : Chapter 32
    02:35:52.260 : Chapter 33
    02:46:50.876 : Chapter 34
    02:52:21.039 : Chapter 35







    VDAKA ZA BODY a SEEDUJTE






























    Ram, Trismegistos, Roman2196, dave8888, maysa33,

    + Pridaj vlastnu verziu tohto torrentu +


    Upozornenie:
    Ziadny zo zobrazených súborov sa nenachádza na tomto serveri. Server slúzi len k síreniu vlastnorucne vytvorených aplikácií, videí, hudby ai. Autori stránok nenesú ziadnu zodpovednost za zverejnené odkazy, komentáre a obsah súborov. Vsetky komentáre, odkazy, súbory ktoré by svojou povahou mohli byt v rozpore zo zákonmi sem vkladáte na vlastnú zodpovednost. Autori stránok si vyhradzujú právo cenzúry odkazov, komentárov príp. súborov, ktoré by svojou povahou mohli byt v rozpore zo zákonmi a dobrými mravmi. Dodrzujte pravidlá!





    0
    maysa33
    Ratio 4.2

    VIP

    04/08/2021 21.52.46
    Ahoj. Otazočka odkial je ta CZ(640kb/s) audio stopa kedže na BD a UHD vyšlo len 448kb/s ??


    --------------
    >> 04/08/2021 21.55.06
    UPLOADER: kupil som na Darkwebe... bola akcia akurat!

    0
    otelo412
    Ratio 0.53

    VIP

    02/08/2021 21.46.41
    vďaka za up a hudba na pozadí, supeeer!!!


    --------------
    >> 02/08/2021 22.12.42
    UPLOADER: rado sa stalo

    0
    juditakracmarova
    Ratio 1.48

    Member+

    02/08/2021 20.21.57
    budou další 2 zbylé díly


    --------------
    >> 02/08/2021 20.32.24
    UPLOADER: samozrejme


    --------------
    >> 02/08/2021 22.31.09
    juditakracmarova: děkuju


    --------------
    >> 02/08/2021 22.34.55
    UPLOADER: II. mozes stahovat a III. bude zajtra


    --------------
    >> 02/08/2021 23.19.40
    juditakracmarova: aspon někdo slušnej v týhle blbý době ještě jednou děkuju!!!


    --------------
    >> 03/08/2021 08.43.51
    UPLOADER: Nemas zac a rado sa stalo
    slusnych a ochotnych je nas tu viac neboj


    --------------
    >> 03/08/2021 14.14.01
    juditakracmarova: bude dnes ten 3 dílek vdaka moc pán prstenu a hobbit je moje srdcovka


    Back

    Na serveru se nenalézají zádne soubory. Za odkazy jsou výhradně zodpovědní uzivatelé a návstěvníci tohoto trackeru. Administrátor není zodpovědný za pridaný obsah ani za skody zpusobené uzivateli. Rozsirovat stránku nebo její obsah bez souhlasu ownera je zakázano. Nesmíte pouzívat tuto webovou stránku pro distribuovaní nebo download zádného materiálu pokud nemáte povolení od príslusného vlastníka práv. Uzivatelé jsou zodpovědní za dodrzování těchto pravidel a podmínek. Owner má právo kdykoliv změnit pravidla tohoto trackeru.

    [ Script trval: 0.021 sec. ] - [ GZIP: enabled ]
    Je zhruba 15:57

    TOPlist