Tvoj účet nieje VIP.
Preto sú tvoje funkcie a možnosti značne obmedzené.
Pre aktiváciu VIP klikni sem.

Hobit: Smakova draci poust / The Hobbit: The Desolation of Smoug (2013)(CZ/EN)(2160p 4K BRRip) = CSFD 80% | SkTorrent.eu

Cz-SkTorrent open Tracker, na volné zdielanie súborov. Pridajte sa k nasej komunite a získajte pristup k tisícom torrentov.

  • vysoká rýchlost
  • úplne zdarma
  • prevazne Slovenska a Ceska scena
  • ste tu s nami uz 5 rokov - Dakujeme
  • Vitaj Guest (Login) Ako stahovat
    torrenty?
    Torrenty:
    v1 textová
    v2 obrázková
    v3 online filmy
    Ako sa stat
    Uploaderom
    Online
    Filmy
    Forum
    Pravidlá
    BitTorrent
    klient
    Meno: Heslo:
    Zaregistrovat
    Po zaregistrovaní mozte volne stahovat
    Zabudol som heslo

    Torrent's details
    Hobit: Smakova draci poust / The Hobbit: The Desolation of Smoug (2013)(CZ/EN)(2160p 4K BRRip) = CSFD 80% Názov:Hobit: Smakova draci poust / The Hobbit: The Desolation of Smoug (2013)(CZ/EN)(2160p 4K BRRip) = CSFD 80% Hodnocení: Stiahnut
    Pozriet Online
    Kategória:UHD Filmy Velikost:41.3 GB BitTorrent klient
    Pridaný: Súbory:
    Skontrolován:2021-08-02 Peerov:14 (Seed: 8, Leech: 6)
    Zaner:Dobrodruzny,Fantasy Uploader:Uvidis, az ked budes
    VIP
    Kúp nám Pivo 1,10€

    Kúp nám Pivo
    Podporte nas na Facebooku !
    Pridaj do zalozky
    Pridaj do zalozky






    Hobit: Smakova draci poust
    The Hobbit: The Desolation of Smoug
    (2013)(CZ/EN) = CSFD 80%

    EXTENDED - 2160p 4K HDR10 - HEVC – 31.7 Mb/s Bitrate verzia


    ... na zelanie ...





    Video: 2160p 4K HDR10 - HEVC
    Jazyk: CZ 5.1 DD / EN 7.1 TrueHD / EN 5.1 DD
    Titulky: CZ
    Dobrodruzny / Fantasy
    USA / NWZ  2013
    186 min

    PRODUKCE & HERCI

    Režie: Peter Jackson
    Předloha: John Ronald Reuel Tolkien (kniha)
    Scénář: Fran Walsh, Philippa Boyens, Peter Jackson, Guillermo del Toro
    Kamera: Andrew Lesnie
    Hudba: Howard Shore
    Hrají: Martin Freeman, Ian McKellen, Benedict Cumberbatch, Luke Evans, Orlando Bloom, Evangeline Lilly, Richard Armitage, Graham McTavish, James Nesbitt, Ken Stott, John Callen, Cate Blanchett, Manu Bennett, Lee Pace, Aidan Turner, Stephen Fry, William Kircher, Dean O'Gorman, Mark Hadlow, Jeffrey Thomas, Stephen Hunter, Peter Hambleton, Kiran Shah, Adam Brown, Jed Brophy, Sylvester McCoy, Peter Jackson, John Bell, Ryan Gage, Mikael Persbrandt, Lawrence Makoare, Stephen Colbert, Jabez Olssen, Eli Kent, Terry Notary, Zane Weiner, Peter Colbert, Mary Nesbitt, Peggy Nesbitt

    OBSAH

    Hobit: Šmakova dračí poušť líčí další dobrodružství hobita Bilbo Pytlíka na jeho společné pouti s čarodějem Gandalfem a třinácti trpaslíky vedenými Thorinem Pavézou. Vydali se na výpravnou cestu, jejímž cílem je získat zpět Osamělou horu a ztracené království trpaslíků Erebor. Poté, co přežili začátek své neočekávané cesty, pokračuje tato společnost směrem na Východ a cestou potkává kožoměnce Medděda a v lese Mirkwood plném nástrah se střetává s houfem obřích Pavouků. Když se jim podaří uniknout ze zajetí nebezpečných lesních elfů, pokračují trpaslíci k Jezernímu městu a nakonec k samotné Osamělé hoře, kde musí čelit největšímu nebezpečí v podobě Šmaka -  nejstrašlivější nestvůry, která prověří nejen jejich odvahu, ale i pevnost jejich přátelství a smysluplnost celé pouti.

    SCREEN



    TRAILER





    Hlavní
    Formát : Matroska
    Format version : Version 4
    Velikost souboru : 41,3 GiB
    Duration : 3 h 6 min
    Overall bit rate mode : Variable
    Celkový BitRate : 31,7 Mb/s
    Encoded date : UTC 2021-07-31 23:32:07
    Použitý software : mkvmerge v60.0.0 ('Are We Copies?') 64-bit
    Enkódoval : libebml v1.4.2 + libmatroska v1.6.4

    Video
    ID : 1
    Formát : HEVC
    Formát/Info : High Efficiency Video Coding
    Format profile : Main 10@L5.1@High
    HDR format : SMPTE ST 2086, HDR10 compatible
    Codec ID : V_MPEGH/ISO/HEVC
    Duration : 3 h 6 min
    Bit rate : 27,4 Mb/s
    Šířka : 3 840pixely
    Výška : 1 610pixely
    Poměr stran : 2,40:1
    Frame rate mode : Constant
    Frame rate : 23,976 (24000/1001) FPS
    Color space : YUV
    Chroma subsampling : 4:2:0 (Type 2)
    Bit depth : 10 bits
    Bits/(Pixel*Frame) : 0.185
    Stream size : 35,6 GiB (86%)
    Enkódoval : x265 3.4+12-g9103319fc:[Windows][MSVC 1900][64 bit] 10bit
    Default : Ano
    Forced : Ne
    Color range : Limited
    Color primaries : BT.2020
    Transfer characteristics : PQ
    Matrix coefficients : BT.2020 non-constant
    Mastering display color primaries : Display P3
    Mastering display luminance : min: 0.0050 cd/m2, max: 4000 cd/m2
    Maximum Content Light Level : 1122 cd/m2
    Maximum Frame-Average Light Level : 216 cd/m2

    Audio #1
    ID : 2
    Formát : MLP FBA 16-ch
    Formát/Info : Meridian Lossless Packing FBA with 16-channel presentation
    Commercial name : Dolby TrueHD with Dolby Atmos
    Codec ID : A_TRUEHD
    Duration : 3 h 6 min
    Bit rate mode : Variable
    Bit rate : 3 200 kb/s
    Maximum bit rate : 5 031 kb/s
    Kanál(y) : 8 kanály
    Channel layout : L R C LFE Ls Rs Lb Rb
    Sampling rate : 48,0 kHz
    Frame rate : 1 200,000 FPS (40 SPF)
    Compression mode : Lossless
    Stream size : 4,17 GiB (10%)
    Jazyk : English
    Default : Ano
    Forced : Ne
    Number of dynamic objects : 11
    Bed channel count : 1 kanál
    Bed channel configuration : LFE

    Audio #2
    ID : 3
    Formát : AC-3
    Formát/Info : Audio Coding 3
    Commercial name : Dolby Digital
    Format settings : Dolby Surround EX
    Codec ID : A_AC3
    Duration : 3 h 6 min
    Bit rate mode : Constant
    Bit rate : 448 kb/s
    Kanál(y) : 6 kanály
    Channel layout : L R C LFE Ls Rs
    Sampling rate : 48,0 kHz
    Frame rate : 31,250 FPS (1536 SPF)
    Compression mode : Lossy
    Stream size : 598 MiB (1%)
    Jazyk : English
    Service kind : Complete Main
    Default : Ne
    Forced : Ne

    Audio #3
    ID : 4
    Formát : AC-3
    Formát/Info : Audio Coding 3
    Commercial name : Dolby Digital
    Codec ID : A_AC3
    Duration : 3 h 6 min
    Bit rate mode : Constant
    Bit rate : 640 kb/s
    Kanál(y) : 6 kanály
    Channel layout : L R C LFE Ls Rs
    Sampling rate : 48,0 kHz
    Frame rate : 31,250 FPS (1536 SPF)
    Compression mode : Lossy
    Video delay : 25 ms
    Stream size : 852 MiB (2%)
    Jazyk : Czech
    Service kind : Complete Main
    Default : Ano
    Forced : Ano

    Text #1
    ID : 5
    Formát : PGS
    Muxing mode : zlib
    Codec ID : S_HDMV/PGS
    Codec ID/Info : Picture based subtitle format used on BDs/HD-DVDs
    Duration : 3 h 5 min
    Bit rate : 18,4 kb/s
    Count of elements : 4240
    Stream size : 24,4 MiB (0%)
    Jazyk : Czech
    Default : Ne
    Forced : Ne

    Text #2
    ID : 6
    Formát : ASS
    Codec ID : S_TEXT/ASS
    Codec ID/Info : Advanced Sub Station Alpha
    Duration : 2 h 40 min
    Bit rate : 3 b/s
    Count of elements : 96
    Compression mode : Lossless
    Stream size : 3,74 KiB (0%)
    Titul : Forced
    Jazyk : Czech
    Default : Ano
    Forced : Ne

    Text #3
    ID : 7
    Formát : ASS
    Codec ID : S_TEXT/ASS
    Codec ID/Info : Advanced Sub Station Alpha
    Duration : 3 h 0 min
    Bit rate : 65 b/s
    Count of elements : 1666
    Compression mode : Lossless
    Stream size : 86,9 KiB (0%)
    Titul : Full
    Jazyk : Czech
    Default : Ne
    Forced : Ne

    Menu
    00:00:00.000 : Chapter 01
    00:07:33.036 : Chapter 02
    00:11:59.928 : Chapter 03
    00:12:59.070 : Chapter 04
    00:15:54.996 : Chapter 05
    00:20:56.547 : Chapter 06
    00:23:15.060 : Chapter 07
    00:25:52.301 : Chapter 08
    00:29:58.880 : Chapter 09
    00:38:13.666 : Chapter 10
    00:46:43.467 : Chapter 11
    00:49:45.941 : Chapter 12
    00:53:19.154 : Chapter 13
    00:55:09.848 : Chapter 14
    00:58:07.484 : Chapter 15
    01:08:41.951 : Chapter 16
    01:12:21.963 : Chapter 17
    01:15:45.332 : Chapter 18
    01:19:09.787 : Chapter 19
    01:22:46.461 : Chapter 20
    01:25:09.313 : Chapter 21
    01:28:07.365 : Chapter 22
    01:31:15.178 : Chapter 23
    01:36:02.382 : Chapter 24
    01:37:35.516 : Chapter 25
    01:40:35.029 : Chapter 26
    01:45:16.143 : Chapter 27
    01:48:44.101 : Chapter 28
    01:50:31.375 : Chapter 29
    01:52:36.166 : Chapter 30
    01:53:08.073 : Chapter 31
    01:59:15.982 : Chapter 32
    02:07:11.457 : Chapter 33
    02:07:38.734 : Chapter 34
    02:09:22.296 : Chapter 35
    02:12:48.210 : Chapter 36
    02:22:00.470 : Chapter 37
    02:22:43.054 : Chapter 38
    02:23:17.547 : Chapter 39
    02:24:56.021 : Chapter 40
    02:26:44.713 : Chapter 41
    02:29:18.449 : Chapter 42
    02:33:12.600 : Chapter 43
    02:34:57.246 : Chapter 44
    02:36:12.780 : Chapter 45
    02:37:45.581 : Chapter 46
    02:39:08.456 : Chapter 47
    02:41:39.565 : Chapter 48
    02:44:05.627 : Chapter 49
    02:51:16.308 : Chapter 50
    02:56:05.180 : Chapter 51







    VDAKA ZA BODY a SEEDUJTE











    DARKone, Trismegistos, dave8888, Roman2196, train,

    + Pridaj vlastnu verziu tohto torrentu +


    Upozornenie:
    Ziadny zo zobrazených súborov sa nenachádza na tomto serveri. Server slúzi len k síreniu vlastnorucne vytvorených aplikácií, videí, hudby ai. Autori stránok nenesú ziadnu zodpovednost za zverejnené odkazy, komentáre a obsah súborov. Vsetky komentáre, odkazy, súbory ktoré by svojou povahou mohli byt v rozpore zo zákonmi sem vkladáte na vlastnú zodpovednost. Autori stránok si vyhradzujú právo cenzúry odkazov, komentárov príp. súborov, ktoré by svojou povahou mohli byt v rozpore zo zákonmi a dobrými mravmi. Dodrzujte pravidlá!





    0
    nevrlacek
    Ratio 1.2

    Member+

    03/08/2021 20.31.37
    ahoj vsechny tri dily jsou prodlouzene verze co tu jsou? diky za odpoved


    --------------
    >> 03/08/2021 20.56.54
    UPLOADER: ahoj
    ano, vsetky tri casti su EXTENDED - predlzena verzia

    0
    otelo412
    Ratio 0.53

    VIP

    02/08/2021 21.45.05
    hudba na pozadí mohla byť troška viac "Hobitia" inak vďaka za up


    Back

    Na serveru se nenalézají zádne soubory. Za odkazy jsou výhradně zodpovědní uzivatelé a návstěvníci tohoto trackeru. Administrátor není zodpovědný za pridaný obsah ani za skody zpusobené uzivateli. Rozsirovat stránku nebo její obsah bez souhlasu ownera je zakázano. Nesmíte pouzívat tuto webovou stránku pro distribuovaní nebo download zádného materiálu pokud nemáte povolení od príslusného vlastníka práv. Uzivatelé jsou zodpovědní za dodrzování těchto pravidel a podmínek. Owner má právo kdykoliv změnit pravidla tohoto trackeru.

    [ Script trval: 0.029 sec. ] - [ GZIP: enabled ]
    Je zhruba 16:26

    TOPlist