Tvoj účet nieje VIP.
Preto sú tvoje funkcie a možnosti značne obmedzené.
Pre aktiváciu VIP klikni sem.

Hodny, zly a mrtvy / 4Got10 (CZ/SK/EN)(2015)[720pHD] = CSFD 35% | SkTorrent.eu

Cz-SkTorrent open Tracker, na volné zdielanie súborov. Pridajte sa k nasej komunite a získajte pristup k tisícom torrentov.

  • vysoká rýchlost
  • úplne zdarma
  • prevazne Slovenska a Ceska scena
  • ste tu s nami uz 5 rokov - Dakujeme
  • Vitaj Guest (Login) Ako stahovat
    torrenty?
    Torrenty:
    v1 textová
    v2 obrázková
    v3 online filmy
    Ako sa stat
    Uploaderom
    Online
    Filmy
    Forum
    Pravidlá
    BitTorrent
    klient
    Meno: Heslo:
    Zaregistrovat
    Po zaregistrovaní mozte volne stahovat
    Zabudol som heslo

    Torrent's details
    Hodny, zly a mrtvy / 4Got10 (CZ/SK/EN)(2015)[720pHD] = CSFD 35% Názov:Hodny, zly a mrtvy / 4Got10 (CZ/SK/EN)(2015)[720pHD] = CSFD 35% Hodnocení: Stiahnut
    Pozriet Online
    Kategória:HD Filmy Velikost:3.0 GB BitTorrent klient
    Pridaný: Súbory:
    Skontrolován:2018-11-01 Peerov:1 (Seed: 1, Leech: 0)
    Zaner:Akcni,Thriller,Western Uploader:Uvidis, az ked budes
    VIP
    Kúp nám Pivo 1,10€

    Kúp nám Pivo
    Podporte nas na Facebooku !
    Pridaj do zalozky
    Pridaj do zalozky







    !!! Exkluzivně v tomto provedení pouze na SKT !!!

    Velkej Magor a.k.a Argee present

    Zhotovitelská kategorie




    Jazyk: 2.0 cz, 2.0 sk, 5.1 eng
    Délka: 1 Hod. 20 minut
    Rok vydání: USA 2015
    Video: Avc (xvid hozenej do kontejneru)
    Zvuk: Mp3, Ac-3, Ac-3
    Titulky: cz video forced a full na eng + bonus
    Žánr: Akční







    Drogový baron Mateo Daniel Peréz (Danny Trejo) přišel v posledním kšeftu o drogy i 3 miliony dolarů. Přišel ale o daleko víc, přišel o syna. O syna, který pracoval jako zástupce šerifa a s otcem neměl žádný kontakt. Byl nalezen na místě výměny zastřelený. Kdo stojí za jeho smrtí? Je to šerif Olson (Michael Paré) nalezený na stejném místě postřelený? Nebo je to tajemný cizinec ujíždějící z místa s penězi a drogami? Kdo to byl a jaký k tomu měl důvod? Všemu se snaží přijít na kloub agent DEA Rooker, který je uprchlíkovi v patách. Bude v pátrání rychlejší on, nebo Peréz?




    Video / Audio


    Complete name: I:\Argee\Filmy\Hodný,zlý a mrtvý 720pHD.mkv
    Format: Matroska
    File size: 3.00 GiB
    Duration: 1h 20mn
    Overall bit rate: 5 332 Kbps
    Encoded date: UTC 2017-02-03 10:33:40
    Writing application: mkvmerge v9.5.0 (Quiet Fire) 32bit
    Writing library: libebml v1.3.4   libmatroska v1.4.5

    Video
    ID: 1
    Format: MPEG-4 Visual
    Format profile: Advanced Simple@L5
    Format settings, BVOP: No
    Format settings, QPel: No
    Format settings, GMC: No warppoints
    Format settings, Matrix: Default (H.263)
    Codec ID: XVID
    Codec ID/Hint: XviD
    Duration: 1h 20mn
    Bit rate: 4 394 Kbps
    Width: 1 280 pixels
    Height: 720 pixels
    Display aspect ratio: 16:9
    Frame rate: 25.000 fps
    Color space: YUV
    Chroma subsampling: 4:2:0
    Bit depth: 8 bits
    Scan type: Progressive
    Compression mode: Lossy
    Bits/(Pixel*Frame): 0.191
    Stream size: 2.48 GiB (82%)
    Writing library: XviD 62

    Audio #1
    ID: 2
    Format: MPEG Audio
    Format version: Version 1
    Format profile: Layer 3
    Codec ID: A_MPEG/L3
    Codec ID/Hint: MP3
    Duration: 1h 20mn
    Bit rate mode: Constant
    Bit rate: 192 Kbps
    Channel(s): 2 channels
    Sampling rate: 44.1 KHz
    Compression mode: Lossy
    Stream size: 111 MiB (4%)
    Title: 2.0
    Writing library: LAMELAME_MAJOR_VERSION
    Language: Czech

    Audio #2
    ID: 3
    Format: AC-3
    Format/Info: Audio Coding 3
    Mode extension: CM (complete main)
    Codec ID: A_AC3
    Duration: 1h 20mn
    Bit rate mode: Constant
    Bit rate: 320 Kbps
    Channel(s): 2 channels
    Channel positions: Front: L R
    Sampling rate: 48.0 KHz
    Bit depth: 16 bits
    Compression mode: Lossy
    Stream size: 185 MiB (6%)
    Title: 2.0
    Language: Slovak

    Audio #3
    ID: 4
    Format: AC-3
    Format/Info: Audio Coding 3
    Mode extension: CM (complete main)
    Codec ID: A_AC3
    Duration: 1h 20mn
    Bit rate mode: Constant
    Bit rate: 320 Kbps
    Channel(s): 6 channels
    Channel positions: Front: L C R, Side: L R, LFE
    Sampling rate: 48.0 KHz
    Bit depth: 16 bits
    Compression mode: Lossy
    Stream size: 185 MiB (6%)
    Title: 5.1
    Language: English

    Text
    ID: 5
    Format: UTF-8
    Codec ID: S_TEXT/UTF8
    Codec ID/Info: UTF-8 Plain Text
    Title: full na eng
    Language: Czech


    Dobrý Béčko


    _






    Upozornenie:
    Ziadny zo zobrazených súborov sa nenachádza na tomto serveri. Server slúzi len k síreniu vlastnorucne vytvorených aplikácií, videí, hudby ai. Autori stránok nenesú ziadnu zodpovednost za zverejnené odkazy, komentáre a obsah súborov. Vsetky komentáre, odkazy, súbory ktoré by svojou povahou mohli byt v rozpore zo zákonmi sem vkladáte na vlastnú zodpovednost. Autori stránok si vyhradzujú právo cenzúry odkazov, komentárov príp. súborov, ktoré by svojou povahou mohli byt v rozpore zo zákonmi a dobrými mravmi. Dodrzujte pravidlá!





    0
    petr500
    Ratio 188.08

    Member+

    03/02/2017 20.15.25
    Odpovedat

    diky žes to sem nahodil

    1
    L.A.Kings
    Ratio 3.7

    Member+

    03/02/2017 17.35.23
    Odpovedat



    Back

    Na serveru se nenalézají zádne soubory. Za odkazy jsou výhradně zodpovědní uzivatelé a návstěvníci tohoto trackeru. Administrátor není zodpovědný za pridaný obsah ani za skody zpusobené uzivateli. Rozsirovat stránku nebo její obsah bez souhlasu ownera je zakázano. Nesmíte pouzívat tuto webovou stránku pro distribuovaní nebo download zádného materiálu pokud nemáte povolení od príslusného vlastníka práv. Uzivatelé jsou zodpovědní za dodrzování těchto pravidel a podmínek. Owner má právo kdykoliv změnit pravidla tohoto trackeru.

    [ Script trval: 0.050 sec. ] - [ GZIP: enabled ]
    BtiTracker (1.4.8) by Btiteam
    Je zhruba 11:01

    TOPlist