Tvoj účet nieje VIP.
Preto sú tvoje funkcie a možnosti značne obmedzené.
Pre aktiváciu VIP klikni sem.

Hon na carodejnice / Season of the Witch (2011)(CZ) = CSFD 58% | SkTorrent.eu

Cz-SkTorrent open Tracker, na volné zdielanie súborov. Pridajte sa k nasej komunite a získajte pristup k tisícom torrentov.

  • vysoká rýchlost
  • úplne zdarma
  • prevazne Slovenska a Ceska scena
  • ste tu s nami uz 5 rokov - Dakujeme
  • Vitaj Guest (Login) Ako stahovat
    torrenty?
    Torrenty:
    v1 textová
    v2 obrázková
    v3 online filmy
    Ako sa stat
    Uploaderom
    Online
    Filmy
    Forum
    Pravidlá
    BitTorrent
    klient
    Meno: Heslo:
    Zaregistrovat
    Po zaregistrovaní mozte volne stahovat
    Zabudol som heslo

    Torrent's details
    Hon na carodejnice / Season of the Witch (2011)(CZ) = CSFD 58% Názov:Hon na carodejnice / Season of the Witch (2011)(CZ) = CSFD 58% Hodnocení:N/A Stiahnut
    Pozriet Online
    Kategória:Filmy CZ/SK dabing Velikost:686.4 MB BitTorrent klient
    Pridaný: Súbory:
    Skontrolován:2014-02-09 Peerov:1 (Seed: 0, Leech: 1)
    Zaner:Akcni,Dobrodruzny,Fantasy Uploader:Uvidis, az ked budes
    VIP
    Kúp nám Pivo 1,10€

    Kúp nám Pivo
    Podporte nas na Facebooku !
    Pridaj do zalozky
    Pridaj do zalozky







    Jazyk: cz
    Titulky: nie
    Kvalita zvuku: MPEG Audio
    Kvalita videa: MPEG-4 Visual
    Odkaz na CSFD: http://www.csfd.cz/film/248144-hon-na-carodejnice
    http://www.csfd.cz/film/248144-hon-na-carodejnice/
    Rok vydání: 2011
    Délka: 1h 34mn
    Obal:

    Žánr: Dobrodružný / Akční / Fantasy
    Screen:


         
    Obsah

    Výpravný film vypráví příběh hrdinného křižáka Behmana ((Nicolas Cage - )) a jeho nejbližšího přítele Felsona (Ron Perlman). Po desetiletích boje se vracejí do vlasti, kterou nacházejí zdevastovanou morem. Církevní hodnostáři jsou přesvědčeni, že za katastrofu je odpovědná dívka obviněná z čarodějnictví, a proto dvojici hrdinů rozkáží, aby ji dopravili do vzdáleného kláštera. Zde se má údajná čarodějnice podrobit prastarému rituálu vymítání ďábla. Vydávají se tedy na strastiplnou cestu, která je zkouškou jejich sil a kuráže a během ní odhalí dívčino temné tajemství...

    General
    Complete name: C:Hon.na.carodejnice.2011.DVDRip.XviD.CZ.avi
    Format: AVI
    Format/Info: Audio Video Interleave
    File size: 686 MiB
    Duration: 1h 34mn
    Overall bit rate: 1 014 Kbps
    Writing application: VirtualDubMod 1.5.10.1 (build 2424/release)
    Writing library: VirtualDubMod build 2424/release

    Video
    ID: 0
    Format: MPEG-4 Visual
    Format profile: AdvancedSimple@L5
    Format settings, BVOP: Yes
    Format settings, QPel: No
    Format settings, GMC: No warppoints
    Format settings, Matrix: Default (H.263)
    Muxing mode: Packed bitstream
    Codec ID: XVID
    Codec ID/Hint: XviD
    Duration: 1h 34mn
    Bit rate: 876 Kbps
    Width: 640 pixels
    Height: 352 pixels
    Display aspect ratio: 16:9
    Frame rate: 23.976 fps
    Resolution: 24 bits
    Colorimetry: 4:2:0
    Scan type: Progressive
    Bits/(Pixel*Frame): 0.162
    Stream size: 593 MiB (86%)
    Writing library: XviD 1.2.1 (UTC 2008-12-04)

    Audio
    ID: 1
    Format: MPEG Audio
    Format version: Version 1
    Format profile: Layer 3
    Codec ID: 55
    Codec ID/Hint: MP3
    Duration: 1h 34mn
    Bit rate mode: Constant
    Bit rate: 128 Kbps
    Channel(s): 2 channels
    Sampling rate: 48.0 KHz
    Resolution: 16 bits
    Stream size: 86.7 MiB (13%)
    Alignment: Aligned on interleaves
    Interleave, duration: 42 ms (1.00 video frame)
    Interleave, preload duration: 504 ms
    Writing library: LAME3.98 (beta)














    milanuska,

    + Pridaj vlastnu verziu tohto torrentu +


    Upozornenie:
    Ziadny zo zobrazených súborov sa nenachádza na tomto serveri. Server slúzi len k síreniu vlastnorucne vytvorených aplikácií, videí, hudby ai. Autori stránok nenesú ziadnu zodpovednost za zverejnené odkazy, komentáre a obsah súborov. Vsetky komentáre, odkazy, súbory ktoré by svojou povahou mohli byt v rozpore zo zákonmi sem vkladáte na vlastnú zodpovednost. Autori stránok si vyhradzujú právo cenzúry odkazov, komentárov príp. súborov, ktoré by svojou povahou mohli byt v rozpore zo zákonmi a dobrými mravmi. Dodrzujte pravidlá!


    No comments...


    Back

    Na serveru se nenalézají zádne soubory. Za odkazy jsou výhradně zodpovědní uzivatelé a návstěvníci tohoto trackeru. Administrátor není zodpovědný za pridaný obsah ani za skody zpusobené uzivateli. Rozsirovat stránku nebo její obsah bez souhlasu ownera je zakázano. Nesmíte pouzívat tuto webovou stránku pro distribuovaní nebo download zádného materiálu pokud nemáte povolení od príslusného vlastníka práv. Uzivatelé jsou zodpovědní za dodrzování těchto pravidel a podmínek. Owner má právo kdykoliv změnit pravidla tohoto trackeru.

    [ Script trval: 0.023 sec. ] - [ GZIP: enabled ]
    Je zhruba 18:49
    memcache

    TOPlist