Tvoj účet nieje VIP.
Preto sú tvoje funkcie a možnosti značne obmedzené.
Pre aktiváciu VIP klikni sem.

Hon na lisku / Foxcatcher (2014)(1080p)(BluRay)(English-CZ-PT) = CSFD 61% | SkTorrent.eu

Cz-SkTorrent open Tracker, na volné zdielanie súborov. Pridajte sa k nasej komunite a získajte pristup k tisícom torrentov.

  • vysoká rýchlost
  • úplne zdarma
  • prevazne Slovenska a Ceska scena
  • ste tu s nami uz 5 rokov - Dakujeme
  • Vitaj Guest (Login) Ako stahovat
    torrenty?
    Torrenty:
    v1 textová
    v2 obrázková
    v3 online filmy
    Ako sa stat
    Uploaderom
    Online
    Filmy
    Forum
    Pravidlá
    BitTorrent
    klient
    Meno: Heslo:
    Zaregistrovat
    Po zaregistrovaní mozte volne stahovat
    Zabudol som heslo

    Torrent's details
    Hon na lisku / Foxcatcher (2014)(1080p)(BluRay)(English-CZ-PT) = CSFD 61% Názov:Hon na lisku / Foxcatcher (2014)(1080p)(BluRay)(English-CZ-PT) = CSFD 61% Hodnocení:N/A Stiahnut
    Pozriet Online
    Kategória:Filmy CZ/SK dabing Velikost:3.4 GB BitTorrent klient
    Pridaný: Súbory:
    Skontrolován:2022-03-31 Peerov:3 (Seed: 3, Leech: 0)
    Zaner:Drama,Sportovni,Zivotopisny Uploader:Uvidis, az ked budes
    VIP
    Kúp nám Pivo 1,10€

    Kúp nám Pivo
    Podporte nas na Facebooku !
    Pridaj do zalozky
    Pridaj do zalozky






    [center]





    Movie Name: Foxcatcher (2014)
    IMDb Rating: 7.0/10

    Quality: 1080p (BluRay)
    Language: English (AAC 5.1) Czech (AAC 5.1) Portuguese (5.1)
    Subtitles: English/Czech
    Director: Bennett Miller
    Writers: E. Max Frye, Dan Futterman
    Genres: Biography| History | Drama


    U.S. Olympic wrestling champions and brothers Mark Schultz and Dave Schultz join "Team Foxcatcher", led by eccentric multi-millionaire John du Pont, as they train for the 1988 Olympic Games in Seoul, South Korea, but John's self-destructive behavior threatens to consume them all.
    **
    Olympijský vítěz v zápase Mark Schultz (Channing Tatum) žije v chudobě a zapomnění ve Wisconsinu. Nečekaně se mu dostane pozvání od bohatého dědice Johna du Ponta (Steve Carell), aby se nastěhoval do jeho okázalého sídla, kde má sestavit a trénovat zápasnický tým pro olympiádu v Soulu v roce 1988. Schultz, který touží vykročit ze stínu svého slavného staršího bratra Davea (Mark Ruffalo), vyhlášeného zápasnického trenéra a taktéž držitele zlaté medaile. Du Pont, jenž se snaží získat respekt svých vrstevníků a zapůsobit na svou odmítavou matku (Vanessa Redgrave), se s ohledem na své rozsáhlé finanční prostředky a špičkové technické vybavení, které má na farmě Foxcatcher k dispozici, staví do pozice hlavního trenéra celého týmu. Jak Mark svého mecenáše stále silněji začíná vnímat coby otcovskou postavu, mění se i vztah mezi nimi. Du Pontova nevypočitatelná povaha a psychologické hrátky ale začínají velmi výrazně nahlodávat Markovo již tak nejisté sebevědomí a negativně ovlivňovat výkony, které je schopen na žíněnce podávat. Když začne du Pont upřednostňovat jeho bratra Davea – který má autoritu i sebevědomí, jež Mark i du Pont postrádají – je celé trio na cestě vstříc tragédii, kterou nikdo nedokázal předvídat.






    [/center]

    Format                                   : Matroska
    Format version                           : Version 4
    File size                                : 3.38 GiB
    Duration                                 : 2 h 14 min
    Overall bit rate                         : 3 597 kb/s
    Movie name                               : Foxcatcher (2014)(FHD)(x264)(1080p)(BluRay)(English-CZ-PT) PHDTeam
    Encoded date                             : UTC 2022-03-31 09:51:46
    Writing application                      : mkvmerge v66.0.0 ('Josie') 64-bit
    Writing library                          : libebml v1.4.2 + libmatroska v1.6.4

    Video
    ID                                       : 1
    Format                                   : AVC
    Format/Info                              : Advanced Video Codec
    Format profile                           : High@L4.1
    Format settings                          : CABAC / 4 Ref Frames
    Format settings, CABAC                   : Yes
    Format settings, Reference frames        : 4 frames
    Codec ID                                 : V_MPEG4/ISO/AVC
    Duration                                 : 2 h 14 min
    Bit rate                                 : 2 500 kb/s
    Width                                    : 1 920 pixels
    Height                                   : 1 040 pixels
    Display aspect ratio                     : 1.85:1
    Frame rate mode                          : Constant
    Frame rate                               : 23.976 (23976/1000) FPS
    Color space                              : YUV
    Chroma subsampling                       : 4:2:0
    Bit depth                                : 8 bits
    Scan type                                : Progressive
    Bits/(Pixel*Frame)                       : 0.052
    Stream size                              : 2.35 GiB (69%)
    Title                                    : Foxcatcher (2014)(FHD)(x264)(1080p)(BluRay)(English-CZ-PT) PHDTeam
    Writing library                          : x264 core 152 r2851M ba24899
    Encoding settings                        : cabac=1 / ref=4 / deblock=1:-1:-1 / analyse=0x3:0x113 / me=umh / subme=9 / psy=1 / psy_rd=1.00:0.15 / mixed_ref=1 / me_range=24 / chroma_me=1 / trellis=2 / 8x8dct=1 / cqm=0 / deadzone=21,11 / fast_pskip=1 / chroma_qp_offset=-3 / threads=32 / lookahead_threads=4 / sliced_threads=0 / nr=0 / decimate=1 / interlaced=0 / bluray_compat=0 / constrained_intra=0 / bframes=3 / b_pyramid=2 / b_adapt=2 / b_bias=0 / direct=3 / weightb=1 / open_gop=0 / weightp=2 / keyint=250 / keyint_min=25 / scenecut=40 / intra_refresh=0 / rc_lookahead=50 / rc=2pass / mbtree=1 / bitrate=2500 / ratetol=1.0 / qcomp=0.60 / qpmin=0 / qpmax=69 / qpstep=4 / cplxblur=20.0 / qblur=0.5 / vbv_maxrate=31250 / vbv_bufsize=31250 / nal_hrd=none / filler=0 / ip_ratio=1.40 / aq=3:1.00
    Default                                  : Yes
    Forced                                   : No

    Audio #1
    ID                                       : 2
    Format                                   : AAC LC
    Format/Info                              : Advanced Audio Codec Low Complexity
    Codec ID                                 : A_AAC-2
    Duration                                 : 2 h 14 min
    Bit rate                                 : 224 kb/s
    Channel(s)                               : 6 channels
    Channel layout                           : C L R Ls Rs LFE
    Sampling rate                            : 48.0 kHz
    Frame rate                               : 46.875 FPS (1024 SPF)
    Compression mode                         : Lossy
    Delay relative to video                  : -43 ms
    Stream size                              : 215 MiB (6%)
    Title                                    : EN AAC 5.1
    Language                                 : English
    Default                                  : Yes
    Forced                                   : No

    Audio #2
    ID                                       : 3
    Format                                   : AAC LC
    Format/Info                              : Advanced Audio Codec Low Complexity
    Codec ID                                 : A_AAC-2
    Duration                                 : 2 h 14 min
    Bit rate                                 : 230 kb/s
    Channel(s)                               : 6 channels
    Channel layout                           : C L R Ls Rs LFE
    Sampling rate                            : 48.0 kHz
    Frame rate                               : 46.875 FPS (1024 SPF)
    Compression mode                         : Lossy
    Delay relative to video                  : -43 ms
    Stream size                              : 221 MiB (6%)
    Title                                    : PT AAC 5.1
    Language                                 : Portuguese
    Default                                  : No
    Forced                                   : No

    Audio #3
    ID                                       : 4
    Format                                   : AC-3
    Format/Info                              : Audio Coding 3
    Commercial name                          : Dolby Digital
    Codec ID                                 : A_AC3
    Duration                                 : 2 h 14 min
    Bit rate mode                            : Constant
    Bit rate                                 : 640 kb/s
    Channel(s)                               : 6 channels
    Channel layout                           : L R C LFE Ls Rs
    Sampling rate                            : 48.0 kHz
    Frame rate                               : 31.250 FPS (1536 SPF)
    Compression mode                         : Lossy
    Delay relative to video                  : -43 ms
    Stream size                              : 615 MiB (18%)
    Title                                    : CZ AC3 5.1
    Language                                 : Czech
    Service kind                             : Complete Main
    Default                                  : No
    Forced                                   : No

    Text #1
    ID                                       : 5
    Format                                   : UTF-8
    Codec ID                                 : S_TEXT/UTF8
    Codec ID/Info                            : UTF-8 Plain Text
    Duration                                 : 1 h 7 min
    Bit rate                                 : 0 b/s
    Count of elements                        : 4
    Stream size                              : 127 Bytes (0%)
    Language                                 : Czech
    Default                                  : No
    Forced                                   : No

    Text #2
    ID                                       : 6
    Format                                   : UTF-8
    Codec ID                                 : S_TEXT/UTF8
    Codec ID/Info                            : UTF-8 Plain Text
    Duration                                 : 2 h 7 min
    Bit rate                                 : 27 b/s
    Count of elements                        : 783
    Stream size                              : 25.4 KiB (0%)
    Language                                 : Czech
    Default                                  : No
    Forced                                   : No

    Text #3
    ID                                       : 7
    Format                                   : UTF-8
    Codec ID                                 : S_TEXT/UTF8
    Codec ID/Info                            : UTF-8 Plain Text
    Duration                                 : 2 h 3 min
    Bit rate                                 : 36 b/s
    Count of elements                        : 1103
    Stream size                              : 33.1 KiB (0%)
    Language                                 : English
    Default                                  : No
    Forced                                   : No











    + Pridaj vlastnu verziu tohto torrentu +


    Upozornenie:
    Ziadny zo zobrazených súborov sa nenachádza na tomto serveri. Server slúzi len k síreniu vlastnorucne vytvorených aplikácií, videí, hudby ai. Autori stránok nenesú ziadnu zodpovednost za zverejnené odkazy, komentáre a obsah súborov. Vsetky komentáre, odkazy, súbory ktoré by svojou povahou mohli byt v rozpore zo zákonmi sem vkladáte na vlastnú zodpovednost. Autori stránok si vyhradzujú právo cenzúry odkazov, komentárov príp. súborov, ktoré by svojou povahou mohli byt v rozpore zo zákonmi a dobrými mravmi. Dodrzujte pravidlá!


    No comments...


    Back

    Na serveru se nenalézají zádne soubory. Za odkazy jsou výhradně zodpovědní uzivatelé a návstěvníci tohoto trackeru. Administrátor není zodpovědný za pridaný obsah ani za skody zpusobené uzivateli. Rozsirovat stránku nebo její obsah bez souhlasu ownera je zakázano. Nesmíte pouzívat tuto webovou stránku pro distribuovaní nebo download zádného materiálu pokud nemáte povolení od príslusného vlastníka práv. Uzivatelé jsou zodpovědní za dodrzování těchto pravidel a podmínek. Owner má právo kdykoliv změnit pravidla tohoto trackeru.

    [ Script trval: 0.028 sec. ] - [ GZIP: enabled ]
    Je zhruba 21:08
    sql

    TOPlist