Tvoj účet nieje VIP.
Preto sú tvoje funkcie a možnosti značne obmedzené.
Pre aktiváciu VIP klikni sem.

Hon na ponorku / The Hunt for Red October (1990)(BluRay)(Remastered)(1080p)(2xCZ/SK/EN) = CSFD 81% | SkTorrent.eu

Cz-SkTorrent open Tracker, na volné zdielanie súborov. Pridajte sa k nasej komunite a získajte pristup k tisícom torrentov.

  • vysoká rýchlost
  • úplne zdarma
  • prevazne Slovenska a Ceska scena
  • ste tu s nami uz 5 rokov - Dakujeme
  • Vitaj Guest (Login) Ako stahovat
    torrenty?
    Torrenty:
    v1 textová
    v2 obrázková
    v3 online filmy
    Ako sa stat
    Uploaderom
    Online
    Filmy
    Forum
    Pravidlá
    BitTorrent
    klient
    Meno: Heslo:
    Zaregistrovat
    Po zaregistrovaní mozte volne stahovat
    Zabudol som heslo

    Torrent's details
    Hon na ponorku / The Hunt for Red October (1990)(BluRay)(Remastered)(1080p)(2xCZ/SK/EN) = CSFD 81% Názov:Hon na ponorku / The Hunt for Red October (1990)(BluRay)(Remastered)(1080p)(2xCZ/SK/EN) = CSFD 81% Hodnocení: Stiahnut
    Pozriet Online
    Kategória:HD Filmy Velikost:5.8 GB BitTorrent klient
    Pridaný: Súbory:
    Skontrolován:2021-06-16 Peerov:13 (Seed: 13, Leech: 0)
    Zaner:Akcni,Dobrodruzny,Thriller Uploader:Uvidis, az ked budes
    VIP
    Kúp nám Pivo 1,10€

    Kúp nám Pivo
    Podporte nas na Facebooku !
    Pridaj do zalozky
    Pridaj do zalozky








    Hon na ponorku - The Hunt for Red October (1990)(Remastered)
    BluRay rip 3xCZ (VHS+DVD+TV) + SK dabing (JOJ) EN púvodní dabing + Multi CZ/SK tit

                   










    Akční / Dobrodružný / Thriller
    USA, 1990, 130 min
    Režie: John McTiernan
    Předloha: Tom Clancy (kniha)
    Scénář: Larry Ferguson, Donald Stewart
    Kamera: Jan de Bont
    Hudba: Basil Poledouris
    Hrají: Sean Connery, (Alec Baldwin - ), Scott Glenn, Sam Neill, James Earl Jones, Joss Ackland, Richard Jordan, Peter Firth, Tim Curry,





    Film režiséra Johna McTiernana, natočený podle bestselleru Toma Clancyho, je příběhem mužů, v jejichž rukou leží odpovědnost za soudný den. Zbrusu nová, supermoderní jaderná sovětská ponorka míří k pobřeží USA. Jejím velitelem je kapitán Marko Ramius (Sean Connery). Americká vláda se obává, že ponorka "Rudý říjen" zaútočí. Analytik CIA ((Alec Baldwin - )) je jiného názoru. Myslí si, že kapitán Ramius chce emigrovat. Má však jen několik hodin, aby ho našel a svůj názor dokázal. Sovětské námořní a vzdušné síly po ponorce totiž pátrají také. Hon na ponorku začíná.








    Format                                   : Matroska
    Format version                           : Version 4
    File size                                : 5.80 GiB
    Duration                                 : 2 h 15 min
    Overall bit rate                         : 6 146 kb/s
    Movie name                               : Hon na ponorku (1990)(BluRay)(Remastered)(1080p)(3xCZ-SK-EN)(MAX verze) PHDTeam 2021
    Encoded date                             : UTC 2021-06-16 19:09:55
    Writing application                      : mkvmerge v58.0.0 ('Supper's Ready') 64-bit
    Writing library                          : libebml v1.4.2 + libmatroska v1.6.4
    Attachments                              : 11625772_1128_1024x2000.jpg

    Video
    ID                                       : 1
    Format                                   : AVC
    Format/Info                              : Advanced Video Codec
    Format profile                           : Main@L4.2
    Format settings                          : CABAC / 4 Ref Frames
    Format settings, CABAC                   : Yes
    Format settings, Reference frames        : 4 frames
    Codec ID                                 : V_MPEG4/ISO/AVC
    Duration                                 : 2 h 15 min
    Bit rate                                 : 3 840 kb/s
    Width                                    : 1 920 pixels
    Height                                   : 1 080 pixels
    Display aspect ratio                     : 16:9
    Frame rate mode                          : Constant
    Frame rate                               : 23.976 (24000/1001) FPS
    Color space                              : YUV
    Chroma subsampling                       : 4:2:0
    Bit depth                                : 8 bits
    Scan type                                : Progressive
    Bits/(Pixel*Frame)                       : 0.077
    Stream size                              : 3.62 GiB (62%)
    Title                                    : Hon na ponorku 1990 Full HD Cz,En Remastered
    Writing library                          : x264 core 157 r2935 545de2f
    Encoding settings                        : cabac=1 / ref=2 / deblock=1:0:0 / analyse=0x1:0x111 / me=hex / subme=6 / psy=1 / psy_rd=1.00:0.00 / mixed_ref=1 / me_range=16 / chroma_me=1 / trellis=1 / 8x8dct=0 / cqm=0 / deadzone=21,11 / fast_pskip=1 / chroma_qp_offset=-2 / threads=18 / lookahead_threads=3 / sliced_threads=0 / nr=0 / decimate=1 / interlaced=0 / bluray_compat=0 / constrained_intra=0 / bframes=3 / b_pyramid=2 / b_adapt=1 / b_bias=0 / direct=1 / weightb=1 / open_gop=0 / weightp=1 / keyint=240 / keyint_min=24 / scenecut=40 / intra_refresh=0 / rc_lookahead=30 / rc=2pass / mbtree=1 / bitrate=3840 / ratetol=1.0 / qcomp=0.60 / qpmin=0 / qpmax=69 / qpstep=4 / cplxblur=20.0 / qblur=0.5 / vbv_maxrate=50000 / vbv_bufsize=62500 / nal_hrd=none / filler=0 / ip_ratio=1.40 / aq=1:1.00
    Language                                 : Multiple languages
    Default                                  : Yes
    Forced                                   : No
    Color range                              : Limited
    Color primaries                          : BT.709
    Transfer characteristics                 : BT.709
    Matrix coefficients                      : BT.709

    Audio #1
    ID                                       : 2
    Format                                   : AC-3
    Format/Info                              : Audio Coding 3
    Commercial name                          : Dolby Digital
    Codec ID                                 : A_AC3
    Duration                                 : 2 h 15 min
    Bit rate mode                            : Constant
    Bit rate                                 : 384 kb/s
    Channel(s)                               : 6 channels
    Channel layout                           : L R C LFE Ls Rs
    Sampling rate                            : 48.0 kHz
    Frame rate                               : 31.250 FPS (1536 SPF)
    Compression mode                         : Lossy
    Delay relative to video                  : -5 ms
    Stream size                              : 371 MiB (6%)
    Title                                    : DD 5.1 384 kb/s VHS
    Language                                 : Czech
    Service kind                             : Complete Main
    Default                                  : Yes
    Forced                                   : No

    Audio #2
    ID                                       : 3
    Format                                   : AC-3
    Format/Info                              : Audio Coding 3
    Commercial name                          : Dolby Digital
    Codec ID                                 : A_AC3
    Duration                                 : 2 h 15 min
    Bit rate mode                            : Constant
    Bit rate                                 : 384 kb/s
    Channel(s)                               : 6 channels
    Channel layout                           : L R C LFE Ls Rs
    Sampling rate                            : 48.0 kHz
    Frame rate                               : 31.250 FPS (1536 SPF)
    Compression mode                         : Lossy
    Delay relative to video                  : -5 ms
    Stream size                              : 371 MiB (6%)
    Title                                    : DD 5.1 384 kb/s ČT
    Language                                 : Czech
    Service kind                             : Complete Main
    Default                                  : No
    Forced                                   : No

    Audio #3
    ID                                       : 6
    Format                                   : AAC LC
    Format/Info                              : Advanced Audio Codec Low Complexity
    Codec ID                                 : A_AAC-2
    Duration                                 : 2 h 15 min
    Bit rate                                 : 448 kb/s
    Channel(s)                               : 6 channels
    Channel layout                           : C L R Ls Rs LFE
    Sampling rate                            : 48.0 kHz
    Frame rate                               : 46.875 FPS (1024 SPF)
    Compression mode                         : Lossy
    Delay relative to video                  : -5 ms
    Stream size                              : 433 MiB (7%)
    Title                                    : AAC DD 5.1 CZ
    Language                                 : Czech
    Default                                  : Yes
    Forced                                   : No

    Audio #4
    ID                                       : 7
    Format                                   : AAC LC
    Format/Info                              : Advanced Audio Codec Low Complexity
    Codec ID                                 : A_AAC-2
    Duration                                 : 2 h 15 min
    Bit rate                                 : 320 kb/s
    Channel(s)                               : 2 channels
    Channel layout                           : L R
    Sampling rate                            : 48.0 kHz
    Frame rate                               : 46.875 FPS (1024 SPF)
    Compression mode                         : Lossy
    Delay relative to video                  : -5 ms
    Stream size                              : 309 MiB (5%)
    Title                                    : AAC DD 2.0 SK
    Language                                 : Slovak
    Default                                  : No
    Forced                                   : No

    Audio #5
    ID                                       : 8
    Format                                   : AAC LC
    Format/Info                              : Advanced Audio Codec Low Complexity
    Codec ID                                 : A_AAC-2
    Duration                                 : 2 h 15 min
    Bit rate                                 : 767 kb/s
    Channel(s)                               : 6 channels
    Channel layout                           : C L R Ls Rs LFE
    Sampling rate                            : 48.0 kHz
    Frame rate                               : 46.875 FPS (1024 SPF)
    Compression mode                         : Lossy
    Delay relative to video                  : -5 ms
    Stream size                              : 742 MiB (12%)
    Title                                    : AAC DD 5.1 EN
    Language                                 : English
    Default                                  : No
    Forced                                   : No

    Text #1
    ID                                       : 4
    Format                                   : UTF-8
    Codec ID                                 : S_TEXT/UTF8
    Codec ID/Info                            : UTF-8 Plain Text
    Duration                                 : 1 h 54 min
    Bit rate                                 : 1 b/s
    Count of elements                        : 34
    Stream size                              : 1.18 KiB (0%)
    Title                                    : Forced
    Language                                 : Czech
    Default                                  : Yes
    Forced                                   : No

    Text #2
    ID                                       : 5
    Format                                   : UTF-8
    Codec ID                                 : S_TEXT/UTF8
    Codec ID/Info                            : UTF-8 Plain Text
    Duration                                 : 2 h 10 min
    Bit rate                                 : 64 b/s
    Count of elements                        : 2200
    Stream size                              : 61.7 KiB (0%)
    Title                                    : Full
    Language                                 : Czech
    Default                                  : No
    Forced                                   : No

    Text #3
    ID                                       : 9
    Format                                   : UTF-8
    Codec ID                                 : S_TEXT/UTF8
    Codec ID/Info                            : UTF-8 Plain Text
    Duration                                 : 1 h 54 min
    Bit rate                                 : 1 b/s
    Count of elements                        : 34
    Stream size                              : 1.18 KiB (0%)
    Title                                    : CZ
    Language                                 : Czech
    Default                                  : No
    Forced                                   : No

    Text #4
    ID                                       : 10
    Format                                   : UTF-8
    Codec ID                                 : S_TEXT/UTF8
    Codec ID/Info                            : UTF-8 Plain Text
    Duration                                 : 2 h 11 min
    Bit rate                                 : 64 b/s
    Count of elements                        : 2201
    Stream size                              : 61.7 KiB (0%)
    Title                                    : CZ
    Language                                 : Czech
    Default                                  : No
    Forced                                   : No

    Text #5
    ID                                       : 11
    Format                                   : UTF-8
    Codec ID                                 : S_TEXT/UTF8
    Codec ID/Info                            : UTF-8 Plain Text
    Duration                                 : 2 h 3 min
    Bit rate                                 : 1 b/s
    Count of elements                        : 30
    Stream size                              : 1.02 KiB (0%)
    Title                                    : SK
    Language                                 : Slovak
    Default                                  : No
    Forced                                   : No



















    Trismegistos, Terence, mattess10, Adnay, Jablonka, phalcisko,

    + Pridaj vlastnu verziu tohto torrentu +


    Upozornenie:
    Ziadny zo zobrazených súborov sa nenachádza na tomto serveri. Server slúzi len k síreniu vlastnorucne vytvorených aplikácií, videí, hudby ai. Autori stránok nenesú ziadnu zodpovednost za zverejnené odkazy, komentáre a obsah súborov. Vsetky komentáre, odkazy, súbory ktoré by svojou povahou mohli byt v rozpore zo zákonmi sem vkladáte na vlastnú zodpovednost. Autori stránok si vyhradzujú právo cenzúry odkazov, komentárov príp. súborov, ktoré by svojou povahou mohli byt v rozpore zo zákonmi a dobrými mravmi. Dodrzujte pravidlá!


    No comments...


    Back

    Na serveru se nenalézají zádne soubory. Za odkazy jsou výhradně zodpovědní uzivatelé a návstěvníci tohoto trackeru. Administrátor není zodpovědný za pridaný obsah ani za skody zpusobené uzivateli. Rozsirovat stránku nebo její obsah bez souhlasu ownera je zakázano. Nesmíte pouzívat tuto webovou stránku pro distribuovaní nebo download zádného materiálu pokud nemáte povolení od príslusného vlastníka práv. Uzivatelé jsou zodpovědní za dodrzování těchto pravidel a podmínek. Owner má právo kdykoliv změnit pravidla tohoto trackeru.

    [ Script trval: 0.028 sec. ] - [ GZIP: enabled ]
    BtiTracker (1.4.8) by Btiteam
    Je zhruba 00:48

    TOPlist