Tvoj účet nieje VIP.
Preto sú tvoje funkcie a možnosti značne obmedzené.
Pre aktiváciu VIP klikni sem.

Horky svet 5. dil - Petka = CSFD 54% | SkTorrent.eu

Cz-SkTorrent open Tracker, na volné zdielanie súborov. Pridajte sa k nasej komunite a získajte pristup k tisícom torrentov.

  • vysoká rýchlost
  • úplne zdarma
  • prevazne Slovenska a Ceska scena
  • ste tu s nami uz 5 rokov - Dakujeme
  • Vitaj Guest (Login) Ako stahovat
    torrenty?
    Torrenty:
    v1 textová
    v2 obrázková
    v3 online filmy
    Ako sa stat
    Uploaderom
    Online
    Filmy
    Forum
    Pravidlá
    BitTorrent
    klient
    Meno: Heslo:
    Zaregistrovat
    Po zaregistrovaní mozte volne stahovat
    Zabudol som heslo

    Torrent's details
    Horky svet 5. dil - Petka = CSFD 54% Názov:Horky svet 5. dil - Petka = CSFD 54% Hodnocení: Stiahnut
    Pozriet Online
    Kategória:Seriál Velikost:862.1 MB BitTorrent klient
    Pridaný: Súbory:
    Skontrolován:2022-09-22 Peerov:150 (Seed: 149, Leech: 1)
    Zaner:Komedie Uploader:Uvidis, az ked budes
    VIP
    Kúp nám Pivo 1,10€

    Kúp nám Pivo
    Podporte nas na Facebooku !
    Pridaj do zalozky
    Pridaj do zalozky




    Jazyk: CZ
    Titulky: niesu
    CSFD: https://www.csfd.cz/film/1218044-horky-svet/prehled/
    Komedie
    Česko, 2022, (Minutáž: 55–60 min)



    Štěpán je propuštěný z práce, ale s optimismem sobě vlastním se přizpůsobí okolnostem – stane se z něj muž v domácnosti a plánuje absolvovat sommeliérský kurz. Jeho žena Veronika až taková optimistka není, půlroční Štěpánovo odstupné sice vydrželo skoro rok a ona si v pozici vrchní sestry v nemocnici bere na přilepšenou noční služby, ale chod domácnosti a vodácký sport syna Honzíka přece jenom něco stojí a Veronice už dochází síly. Osud rodině přinese novou výzvu – dědictví v podobě malého rodinného pivovaru v Posázaví. Štěpánova matka Hana se hodlá pivovaru zbavit, ne tak Štěpánův bratr Michal, který by naopak chtěl zachovat tátův odkaz. Veronika doufá, že prodej pivovaru zalepí rodinné dluhy. Ale všechny nakonec překvapí Štěpán, jehož rozhodnutí ovlivní setkání se zkrachovalým, nicméně velmi zkušeným a výjimečným sládkem Bořkem. Hrají M. Ruml, B. Kohoutová, E. Holubová, B. Polívka, J. Štáfek, B. Černá a další. Scénář M. Zlatníková, M. Tesař. Režie M. Kopp

    Media Info
    General
    Complete name                  : D:\DVD\AVI\Hořký svět (2022)\Hořký svět 5. díl - Petka.mp4
    Format                         : MPEG-4
    Format profile                 : Base Media
    Codec ID                       : isom (isom/iso2/avc1/mp41)
    File size                      : 862 MiB
    Duration                       : 55 min 45 s
    Overall bit rate               : 2 161 kb/s
    Encoded date                   : UTC 2022-09-21 18:17:32
    Tagged date                    : UTC 2022-09-21 18:17:32
    Writing application            : Lavf58.74.100

    Video
    ID                             : 1
    Format                         : AVC
    Format/Info                    : Advanced Video Codec
    Format profile                 : Main@L4
    Format settings, CABAC         : Yes
    Format settings, RefFrames     : 2 frames
    Codec ID                       : avc1
    Codec ID/Info                  : Advanced Video Coding
    Duration                       : 55 min 45 s
    Bit rate                       : 2 000 kb/s
    Maximum bit rate               : 2 400 kb/s
    Width                          : 1 280 pixels
    Height                         : 720 pixels
    Display aspect ratio           : 16:9
    Frame rate mode                : Constant
    Frame rate                     : 25.000 FPS
    Color space                    : YUV
    Chroma subsampling             : 4:2:0
    Bit depth                      : 8 bits
    Scan type                      : Progressive
    Bits/(Pixel*Frame)             : 0.087
    Stream size                    : 796 MiB (92%)
    Writing library                : x264 core 161 r3048
    Encoding settings              : cabac=1 / ref=2 / deblock=1:0:0 / analyse=0x1:0x131 / me=hex / subme=7 / psy=1 / psy_rd=1.00:0.00 / mixed_ref=0 / me_range=16 / chroma_me=1 / trellis=1 / 8x8dct=0 / cqm=0 / deadzone=21,11 / fast_pskip=1 / chroma_qp_offset=-2 / threads=6 / lookahead_threads=1 / sliced_threads=0 / nr=0 / decimate=1 / interlaced=0 / bluray_compat=0 / constrained_intra=0 / bframes=3 / b_pyramid=0 / b_adapt=1 / b_bias=0 / direct=0 / weightb=1 / open_gop=0 / weightp=2 / keyint=250 / keyint_min=25 / scenecut=40 / intra_refresh=0 / rc_lookahead=40 / rc=abr / mbtree=1 / bitrate=2000 / ratetol=1.0 / qcomp=0.60 / qpmin=10 / qpmax=69 / qpstep=4 / vbv_maxrate=2400 / vbv_bufsize=24000 / nal_hrd=none / filler=0 / ip_ratio=1.40 / aq=3:1.00
    Language                       : English
    Encoded date                   : UTC 2022-09-21 18:17:32
    Tagged date                    : UTC 2022-09-21 18:17:32

    Audio
    ID                             : 2
    Format                         : AAC
    Format/Info                    : Advanced Audio Codec
    Format profile                 : LC
    Codec ID                       : 40
    Duration                       : 55 min 45 s
    Source duration                : 55 min 45 s
    Source_Duration_LastFrame      : -2 ms
    Bit rate mode                  : Constant
    Bit rate                       : 161 kb/s
    Channel(s)                     : 2 channels
    Channel positions              : Front: L R
    Sampling rate                  : 48.0 kHz
    Frame rate                     : 46.875 FPS (1024 SPF)
    Compression mode               : Lossy
    Stream size                    : 64.1 MiB (7%)
    Source stream size             : 64.1 MiB (7%)
    Language                       : Czech
    Default                        : Yes
    Alternate group                : 1
    Encoded date                   : UTC 2022-09-21 18:17:32
    Tagged date                    : UTC 2022-09-21 18:17:32
    mdhd_Duration                  : 3345790








    dedula, 666, teapel, henry33, EWA70, vladek02, Devil72cz, Karel-Kubik, BERUJIZEZADU, Kubeso, Lubjecz, Bubu66, Kolbik_AitD_cz, troll1349, wolker6, radkarpat, olda,

    + Pridaj vlastnu verziu tohto torrentu +


    Upozornenie:
    Ziadny zo zobrazených súborov sa nenachádza na tomto serveri. Server slúzi len k síreniu vlastnorucne vytvorených aplikácií, videí, hudby ai. Autori stránok nenesú ziadnu zodpovednost za zverejnené odkazy, komentáre a obsah súborov. Vsetky komentáre, odkazy, súbory ktoré by svojou povahou mohli byt v rozpore zo zákonmi sem vkladáte na vlastnú zodpovednost. Autori stránok si vyhradzujú právo cenzúry odkazov, komentárov príp. súborov, ktoré by svojou povahou mohli byt v rozpore zo zákonmi a dobrými mravmi. Dodrzujte pravidlá!





    0
    4cc3s
    Ratio 1

    Clen

    28/09/2022 20.41.12
    Bude 6tka prosím?


    Back

    Na serveru se nenalézají zádne soubory. Za odkazy jsou výhradně zodpovědní uzivatelé a návstěvníci tohoto trackeru. Administrátor není zodpovědný za pridaný obsah ani za skody zpusobené uzivateli. Rozsirovat stránku nebo její obsah bez souhlasu ownera je zakázano. Nesmíte pouzívat tuto webovou stránku pro distribuovaní nebo download zádného materiálu pokud nemáte povolení od príslusného vlastníka práv. Uzivatelé jsou zodpovědní za dodrzování těchto pravidel a podmínek. Owner má právo kdykoliv změnit pravidla tohoto trackeru.

    [ Script trval: 0.025 sec. ] - [ GZIP: enabled ]
    Je zhruba 06:15
    memcache

    TOPlist