Tvoj účet nieje VIP.
Preto sú tvoje funkcie a možnosti značne obmedzené.
Pre aktiváciu VIP klikni sem.

HorrorPorn-Evil Dead.mp4 | SkTorrent.eu

Cz-SkTorrent open Tracker, na volné zdielanie súborov. Pridajte sa k nasej komunite a získajte pristup k tisícom torrentov.

  • vysoká rýchlost
  • úplne zdarma
  • prevazne Slovenska a Ceska scena
  • ste tu s nami uz 5 rokov - Dakujeme
  • Vitaj Guest (Login) Ako stahovat
    torrenty?
    Torrenty:
    v1 textová
    v2 obrázková
    v3 online filmy
    Ako sa stat
    Uploaderom
    Online
    Filmy
    Forum
    Pravidlá
    BitTorrent
    klient
    pruzinky
    Meno: Heslo:
    Zaregistrovat
    Po zaregistrovaní mozte volne stahovat
    Zabudol som heslo

    Torrent's details
    HorrorPorn-Evil Dead.mp4 Názov:HorrorPorn-Evil Dead.mp4 Hodnocení: Stiahnut
    Pozriet Online
    Kategória:xXx Velikost:320.5 MB BitTorrent klient
    Pridaný: Súbory:
    Skontrolován:2020-03-24 Peerov:7 (Seed: 7, Leech: 0)
    Zaner: Uploader:Uvidis, az ked budes
    VIP
    Kúp nám Pivo 1,10€

    Kúp nám Pivo
    Podporte nas na Facebooku !
    Pridaj do zalozky
    Pridaj do zalozky




    NÁZEV:
    HorrorPorn-Evil Dead

    MEDIA INFO:
    General
    Complete name: Horror Porn Evil Dead 720p.mp4
    Format: MPEG-4
    Format profile: Base Media
    Codec ID: isom (isom/iso2/avc1/mp41)
    File size: 321 MiB
    Duration: 20 min 25 s
    Overall bit rate: 2 194 kb/s
    Writing application: Lavf57.83.100

    Video
    ID: 1
    Format: AVC
    Format/Info: Advanced Video Codec
    Format profile: High@L3.1
    Format settings: CABAC / 5 Ref Frames
    Format settings, CABAC: Yes
    Format settings, ReFrames: 5 frames
    Codec ID: avc1
    Codec ID/Info: Advanced Video Coding
    Duration: 20 min 25 s
    Bit rate: 2 000 kb/s
    Width: 1 280 pixels
    Height: 720 pixels
    Display aspect ratio: 16:9
    Frame rate mode: Constant
    Frame rate: 25.000 FPS
    Color space: YUV
    Chroma subsampling: 4:2:0
    Bit depth: 8 bits
    Scan type: Progressive
    Bits/(Pixel*Frame): 0.087
    Stream size: 291 MiB (91%)
    Writing library: x264 core 148 r2 e86f3a1
    Encoding settings: cabac=1 / ref=5 / deblock=1:0:0 / analyse=0x3:0x113 / me=umh / subme=8 / psy=1 / psy_rd=1.00:0.00 / mixed_ref=1 / me_range=16 / chroma_me=1 / trellis=1 / 8x8dct=1 / cqm=0 / deadzone=21,11 / fast_pskip=1 / chroma_qp_offset=-2 / threads=12 / lookahead_threads=2 / sliced_threads=0 / nr=0 / decimate=1 / interlaced=0 / bluray_compat=0 / constrained_intra=0 / bframes=3 / b_pyramid=2 / b_adapt=2 / b_bias=0 / direct=3 / weightb=1 / open_gop=0 / weightp=2 / keyint=250 / keyint_min=25 / scenecut=40 / intra_refresh=0 / rc_lookahead=50 / rc=abr / mbtree=1 / bitrate=2000 / ratetol=1.0 / qcomp=0.60 / qpmin=0 / qpmax=69 / qpstep=4 / ip_ratio=1.40 / aq=1:1.00
    Codec configuration box: avcC

    Audio
    ID: 2
    Format: AAC LC
    Format/Info: Advanced Audio Codec Low Complexity
    Codec ID: mp4a-40-2
    Duration: 20 min 25 s
    Bit rate mode: Constant
    Bit rate: 192 kb/s
    Channel(s): 2 channels
    Channel layout: L R
    Sampling rate: 44.1 kHz
    Frame rate: 43.066 FPS (1024 SPF)
    Compression mode: Lossy
    Stream size: 28.0 MiB (9%)
    Default: Yes
    Alternate group: 1

    SCREEN:






    + Pridaj vlastnu verziu tohto torrentu +


    Upozornenie:
    Ziadny zo zobrazených súborov sa nenachádza na tomto serveri. Server slúzi len k síreniu vlastnorucne vytvorených aplikácií, videí, hudby ai. Autori stránok nenesú ziadnu zodpovednost za zverejnené odkazy, komentáre a obsah súborov. Vsetky komentáre, odkazy, súbory ktoré by svojou povahou mohli byt v rozpore zo zákonmi sem vkladáte na vlastnú zodpovednost. Autori stránok si vyhradzujú právo cenzúry odkazov, komentárov príp. súborov, ktoré by svojou povahou mohli byt v rozpore zo zákonmi a dobrými mravmi. Dodrzujte pravidlá!


    No comments...


    Back

    Na serveru se nenalézají zádne soubory. Za odkazy jsou výhradně zodpovědní uzivatelé a návstěvníci tohoto trackeru. Administrátor není zodpovědný za pridaný obsah ani za skody zpusobené uzivateli. Rozsirovat stránku nebo její obsah bez souhlasu ownera je zakázano. Nesmíte pouzívat tuto webovou stránku pro distribuovaní nebo download zádného materiálu pokud nemáte povolení od príslusného vlastníka práv. Uzivatelé jsou zodpovědní za dodrzování těchto pravidel a podmínek. Owner má právo kdykoliv změnit pravidla tohoto trackeru.

    [ Script trval: 0.026 sec. ] - [ GZIP: enabled ]
    BtiTracker (1.4.8) by Btiteam
    Je zhruba 20:21

    TOPlist