Tvoj účet nieje VIP.
Preto sú tvoje funkcie a možnosti značne obmedzené.
Pre aktiváciu VIP klikni sem.

Hra o truny / Game of Thrones S08E01 - Zimohrad (2019)(CZ/EN)[1080pHD] = CSFD 92% | SkTorrent.eu

Cz-SkTorrent open Tracker, na volné zdielanie súborov. Pridajte sa k nasej komunite a získajte pristup k tisícom torrentov.

  • vysoká rýchlost
  • úplne zdarma
  • prevazne Slovenska a Ceska scena
  • ste tu s nami uz 5 rokov - Dakujeme
  • Vitaj Guest (Login) Ako stahovat
    torrenty?
    Torrenty:
    v1 textová
    v2 obrázková
    v3 online filmy
    Ako sa stat
    Uploaderom
    Online
    Filmy
    Forum
    Pravidlá
    BitTorrent
    klient
    pruzinky
    Meno: Heslo:
    Zaregistrovat
    Po zaregistrovaní mozte volne stahovat
    Zabudol som heslo

    Torrent's details
    Hra o truny / Game of Thrones S08E01 - Zimohrad (2019)(CZ/EN)[1080pHD] = CSFD 92% Názov:Hra o truny / Game of Thrones S08E01 - Zimohrad (2019)(CZ/EN)[1080pHD] = CSFD 92% Hodnocení: Stiahnut
    Pozriet Online
    Kategória:Seriál Velikost:2.7 GB BitTorrent klient
    Pridaný: Súbory:
    Skontrolován:2019-05-12 Peerov:7 (Seed: 7, Leech: 0)
    Zaner:Dobrodruzny,Drama,Fantasy Uploader:Uvidis, az ked budes
    VIP
    Kúp nám Pivo 1,10€

    Kúp nám Pivo
    Podporte nas na Facebooku !
    Pridaj do zalozky
    Pridaj do zalozky











    RATIO 1.00
    nebo VIP




    Jazyk: 2.0 cz a 5.1 eng
    Délka: 50 minut
    Rok vydání: USA 2019
    Video: Avc
    Zvuk: Mp3 a Ac-3
    Titulky: cz full na eng
    Žánr: Fantasy
    https://www.csfd.cz/film/263138-hra-o-truny/prehled/


    Náhledy



    Video / Audio

    Complete name: C:\Users\Magor\Videos\01 Zimohrad.mkv
    Format: Matroska
    Format version: Version 4
    File size: 2.70 GiB
    Duration: 50 min 55 s
    Overall bit rate: 7 594 kb/s
    Movie name: Banana King Production
    Encoded date: UTC 2019-05-12 13:09:10
    Writing application: mkvmerge v33.1.0 (Primrose) 64-bit
    Writing library: libebml v1.3.7   libmatroska v1.5.0
    Cover: Yes
    Attachments: cover.png

    Video
    ID: 1
    Format: AVC
    Format/Info: Advanced Video Codec
    Format profile: High@L4
    Format settings: CABAC / 4 Ref Frames
    Format settings, CABAC: Yes
    Format settings, ReFrames: 4 frames
    Codec ID: V_MPEG4/ISO/AVC
    Duration: 50 min 55 s
    Bit rate mode: Constant
    Bit rate: 6 759 kb/s
    Nominal bit rate: 10 000 kb/s
    Width: 1 920 pixels
    Height: 1 080 pixels
    Display aspect ratio: 16:9
    Frame rate mode: Constant
    Frame rate: 25.000 FPS
    Original frame rate: 23.976 (24000/1001) FPS
    Color space: YUV
    Chroma subsampling: 4:2:0
    Bit depth: 8 bits
    Scan type: Progressive
    Bits/(Pixel*Frame): 0.130
    Stream size: 2.40 GiB (89%)
    Title: Created by Velkej Magor
    Default: Yes
    Forced: No
    Color range: Limited
    Color primaries: BT.709
    Transfer characteristics: BT.709
    Matrix coefficients: BT.709

    Audio #1
    ID: 2
    Format: MPEG Audio
    Format version: Version 1
    Format profile: Layer 3
    Codec ID: A_MPEG/L3
    Codec ID/Hint: MP3
    Duration: 50 min 54 s
    Bit rate mode: Constant
    Bit rate: 192 kb/s
    Channel(s): 2 channels
    Sampling rate: 44.1 kHz
    Frame rate: 38.281 FPS (1152 SPF)
    Compression mode: Lossy
    Stream size: 69.9 MiB (3%)
    Title: 2.0 (Magor)
    Writing library: LAMELAME_MAJOR_VERSI
    Language: Czech
    Default: Yes
    Forced: No

    Audio #2
    ID: 3
    Format: AC-3
    Format/Info: Audio Coding 3
    Commercial name: Dolby Digital
    Codec ID: A_AC3
    Duration: 50 min 55 s
    Bit rate mode: Constant
    Bit rate: 640 kb/s
    Channel(s): 6 channels
    Channel layout: L R C LFE Ls Rs
    Sampling rate: 48.0 kHz
    Frame rate: 31.250 FPS (1536 SPF)
    Bit depth: 16 bits
    Compression mode: Lossy
    Stream size: 233 MiB (8%)
    Language: English
    Service kind: Complete Main
    Default: No
    Forced: No

    Text
    ID: 4
    Format: UTF-8
    Codec ID: S_TEXT/UTF8
    Codec ID/Info: UTF-8 Plain Text
    Duration: 46 min 11 s
    Bit rate: 42 b/s
    Count of elements: 377
    Stream size: 14.4 KiB (0%)
    Title: full na eng
    Language: Czech
    Default: Yes
    Forced: No


    Banana King Production





    ONLINE

    CZ dabing

    Série 1
    S01E01 - Zima se blíží
    S01E02 - Královská cesta
    S01E03 - Lord Sníh
    S01E04 - Mrzáci, bastardi a zlámané věci
    S01E05 - Vlk a lev
    S01E06 - Zlatá koruna
    S01E07 - Zvítězíš, nebo zemřeš
    S01E08 - Bodej ostrým koncem
    S01E09 - Baelor
    S01E10 - Oheň a krev

    Série 2
    S02E01 - Sever nezapomíná
    S02E02 - Noční krajiny
    S02E03 - Co je mrtvé, nemůže nikdy zemřít
    S02E04 - Zahrada kostí
    S02E05 - Duch Harrenhalu
    S02E06 - Bohové staří a noví
    S02E07 - Muž beze cti
    S02E08 - Princ ze Zimohradu
    S02E09 - Oheň a voda
    S02E10 - Valar Morghulis

    Série 3
    S03E01 - Každý musí sloužit
    S03E02 - Temná křídla, temná slova
    S03E03 - Ulička trestu
    S03E04 - A nyní je jeho stáž u konce
    S03E05 - Políbený ohněm
    S03E06 - Cesta vzhůru
    S03E07 - O medvědovi a krásné paně
    S03E08 - Druzí synové
    S03E09 - Deště Kastameru
    S03E10 - Mhysa

    Série 4
    S04E01 - Dva meče
    S04E02 - Lev a růže
    S04E03 - Zbavení okovů
    S04E04 - Přísežník
    S04E05 - První svého jména
    S04E06 - Zákony bohů a lidí
    S04E07 - Drozd
    S04E08 - Hora a Rudá zmije
    S04E09 - Strážci na Zdi
    S04E10 - Děti

    Série 5
    S05E01 - V očekávání válek
    S05E02 - Dům černé a bílé
    S05E03 - Nejvyšší vrabčák
    S05E04 - Synové Harpyje
    S05E05 - Zabij chlapce
    S05E06 - Neohnuti, neskoněni, nezlomeni
    S05E07 - Dar
    S05E08 - Tvrdodomov
    S05E09 - Tanec draků
    S05E10 - Matčino milosrdenství

    Série 6
    S06E01 - Dračí kámen
    S06x02 - Domů
    S06x03 - Křivopřísežník
    S06x04 - Kniha Cizince
    S06E05 - Vrata
    S06x06 - Krev mé krve
    S06x07 - Zlomený muž
    S06E08 - Nikdo
    06x09 - Bitva bastardů
    06x10 - Vichry zimy

    Série 7
    S07E01 - Dračí kámen
    S07E02 - Za bouře zrozená
    S07E03 - Spravedlnost pro královnu
    S07E04 - Válečná kořist
    S07E05 - Východní hlídka
    S07E06 - Za Zdí
    S07E07 - Drak a Vlk

    Serie 8
    S08E01 - Zimohrad
    S08E02 - Rytíř Sedmi království
    S08E03 - Dlouhá noc
    S08E04 - Poslední ze Starků
    S08E05 - Zvony
    S08E06 - Železný trůn

    CZ titulky

    Serie 8
    S08E01 - Winterfell
    S08E02 - A Knight of the Seven Kingdoms
    S08E03 - The Long Night
    S08E04 - The Last of the Starks
    S08E05 - The Bells
    S08E06 - The Iron Throne


    + Pridaj vlastnu verziu tohto torrentu +


    Upozornenie:
    Ziadny zo zobrazených súborov sa nenachádza na tomto serveri. Server slúzi len k síreniu vlastnorucne vytvorených aplikácií, videí, hudby ai. Autori stránok nenesú ziadnu zodpovednost za zverejnené odkazy, komentáre a obsah súborov. Vsetky komentáre, odkazy, súbory ktoré by svojou povahou mohli byt v rozpore zo zákonmi sem vkladáte na vlastnú zodpovednost. Autori stránok si vyhradzujú právo cenzúry odkazov, komentárov príp. súborov, ktoré by svojou povahou mohli byt v rozpore zo zákonmi a dobrými mravmi. Dodrzujte pravidlá!





    13
    dopusy
    Ratio 1625.97

    VIP

    12/05/2019 19.48.59
    Odpovedat

    Tak ho šlukni v češtině Super
    Uploader
    12/05/2019 17.26.43
    Odpovedat

    https://uloz.to/!NRUxnkHb2Dua/01-zimohrad-srt Chybějící forced titulky.
    Uploader
    12/05/2019 15.34.46
    Odpovedat

    Časový komentář


    Back

    Na serveru se nenalézají zádne soubory. Za odkazy jsou výhradně zodpovědní uzivatelé a návstěvníci tohoto trackeru. Administrátor není zodpovědný za pridaný obsah ani za skody zpusobené uzivateli. Rozsirovat stránku nebo její obsah bez souhlasu ownera je zakázano. Nesmíte pouzívat tuto webovou stránku pro distribuovaní nebo download zádného materiálu pokud nemáte povolení od príslusného vlastníka práv. Uzivatelé jsou zodpovědní za dodrzování těchto pravidel a podmínek. Owner má právo kdykoliv změnit pravidla tohoto trackeru.

    [ Script trval: 0.071 sec. ] - [ GZIP: enabled ]
    BtiTracker (1.4.8) by Btiteam
    Je zhruba 09:40

    TOPlist