Tvoj účet nieje VIP.
Preto sú tvoje funkcie a možnosti značne obmedzené.
Pre aktiváciu VIP klikni sem.

Hrozba smrti - Road House (1989)(Remastered)(BluRay)(1080p)(CZ-EN) = CSFD 66% | SkTorrent.eu

Cz-SkTorrent open Tracker, na volné zdielanie súborov. Pridajte sa k nasej komunite a získajte pristup k tisícom torrentov.

  • vysoká rýchlost
  • úplne zdarma
  • prevazne Slovenska a Ceska scena
  • ste tu s nami uz 5 rokov - Dakujeme
  • Vitaj Guest (Login) Ako stahovat
    torrenty?
    Torrenty:
    v1 textová
    v2 obrázková
    v3 online filmy
    Ako sa stat
    Uploaderom
    Online
    Filmy
    Forum
    Pravidlá
    BitTorrent
    klient
    Meno: Heslo:
    Zaregistrovat
    Po zaregistrovaní mozte volne stahovat
    Zabudol som heslo

    Torrent's details
    Hrozba smrti - Road House (1989)(Remastered)(BluRay)(1080p)(CZ-EN) = CSFD 66% Názov:Hrozba smrti - Road House (1989)(Remastered)(BluRay)(1080p)(CZ-EN) = CSFD 66% Hodnocení:N/A Stiahnut
    Pozriet Online
    Kategória:HD Filmy Velikost:5.3 GB BitTorrent klient
    Pridaný: Súbory:
    Skontrolován:2021-07-29 Peerov:11 (Seed: 10, Leech: 1)
    Zaner:Akcni,Krimi,Thriller Uploader:Uvidis, az ked budes
    VIP
    Kúp nám Pivo 1,10€

    Kúp nám Pivo
    Podporte nas na Facebooku !
    Pridaj do zalozky
    Pridaj do zalozky








    Hrozba smrti - Road House (1989)(Remastered)
    BleRay rip CZ a púvodní dabing + CZ tit

                   










    Akční / Krimi / Thriller
    USA, 1989, 110 min
    Režie: Rowdy Herrington
    Scénář: Hilary Henkin, David Lee Henry
    Kamera: Dean Cundey
    Hudba: Michael Kamen
    Hrají: Patrick Swayze, Kelly Lynch, Sam Elliott, Ben Gazzara, Marshall R. Teague, Kevin Tighe, John Doe, Kathleen Wilhoite, Gary Hudson, Anthony De Longis





    Patrick Swayze hraje muže, který udrží pořádek i v nejdivočejším nočním klubu. Právě díky němu se zanedbaný podnik v malém městečku na Missouri promění ve vyhledávanou diskotéku, kde nikdo nemá strach. Přináší mu to i nepřátele. Chtějí si s ním vyřídit účty nejtvrdším způsobem. Když se jim to nedaří, spojí se s brutálním mafiánem, který ovládá celé okolí. Najednou proti sobě má mladíka, který se odmítá podřídit, i když cítí jasně hrozbu smrti. Road House přesvědčí příznivce Patricka Swayzeho, že je stejně skvělý karatista jako tanečník. Svědčí o tom nejenom divácký úspěch Harringtonova filmu, ale i další role Swayzeho v kriminálních filmech jako Break Point (Bod zlomu).








    Formát                                   : Matroska
    Format version                           : Version 4
    Velikost souboru                         : 5,34 GiB
    Duration                                 : 1 h 54 min
    Celkový BitRate                          : 6 701 kb/s
    Název filmu                              : Hrozba smrti - Road House (1989)(Remastered)(BluRay)(1080p)(CZ-EN) PHDTeam 2021
    Encoded date                             : UTC 2021-07-29 19:23:22
    Použitý software                         : mkvmerge v59.0.0 ('Shining Star') 64-bit
    Enkódoval                                : libebml v1.4.2 + libmatroska v1.6.4

    Video
    ID                                       : 1
    Formát                                   : AVC
    Formát/Info                              : Advanced Video Codec
    Format profile                           : High@L4.1
    Format settings                          : CABAC / 4 Ref Frames
    Format settings, CABAC                   : Ano
    Format settings, Reference frames        : 4 frames
    Codec ID                                 : V_MPEG4/ISO/AVC
    Duration                                 : 1 h 54 min
    Bit rate                                 : 5 000 kb/s
    Šířka                                    : 1 920pixely
    Výška                                    : 818pixely
    Poměr stran                              : 2,35:1
    Frame rate mode                          : Constant
    Frame rate                               : 23,976 (24000/1001) FPS
    Color space                              : YUV
    Chroma subsampling                       : 4:2:0
    Bit depth                                : 8 bits
    Scan type                                : Progressive
    Bits/(Pixel*Frame)                       : 0.133
    Stream size                              : 3,98 GiB (75%)
    Titul                                    : Hrozba smrti - Road House (1989)(Remastered)(BluRay)(1080p)(CZ-EN) PHDTeam
    Enkódoval                                : x264 core 157 r2935 545de2f
    Nastavení enkoderu                       : cabac=1 / ref=3 / deblock=1:-1:-1 / analyse=0x3:0x113 / me=hex / subme=7 / psy=1 / psy_rd=1.00:0.15 / mixed_ref=1 / me_range=16 / chroma_me=1 / trellis=1 / 8x8dct=1 / cqm=0 / deadzone=21,11 / fast_pskip=1 / chroma_qp_offset=-3 / threads=6 / lookahead_threads=1 / sliced_threads=0 / nr=0 / decimate=1 / interlaced=0 / bluray_compat=0 / constrained_intra=0 / bframes=3 / b_pyramid=2 / b_adapt=1 / b_bias=0 / direct=1 / weightb=1 / open_gop=0 / weightp=2 / keyint=240 / keyint_min=24 / scenecut=40 / intra_refresh=0 / rc_lookahead=40 / rc=2pass / mbtree=1 / bitrate=5000 / ratetol=1.0 / qcomp=0.60 / qpmin=0 / qpmax=69 / qpstep=4 / cplxblur=20.0 / qblur=0.5 / vbv_maxrate=62500 / vbv_bufsize=78125 / nal_hrd=none / filler=0 / ip_ratio=1.40 / aq=1:1.00
    Default                                  : Ano
    Forced                                   : Ne
    Color range                              : Limited
    Color primaries                          : BT.709
    Transfer characteristics                 : BT.709
    Matrix coefficients                      : BT.709

    Audio #1
    ID                                       : 2
    Formát                                   : DTS
    Formát/Info                              : Digital Theater Systems
    Codec ID                                 : A_DTS
    Duration                                 : 1 h 53 min
    Bit rate mode                            : Constant
    Bit rate                                 : 1 509 kb/s
    Kanál(y)                                 : 6 kanály
    Channel layout                           : C L R Ls Rs LFE
    Sampling rate                            : 48,0 kHz
    Frame rate                               : 93,750 FPS (512 SPF)
    Bit depth                                : 24 bits
    Compression mode                         : Lossy
    Video delay                              : 6 s 500 ms
    Stream size                              : 1,20 GiB (22%)
    Titul                                    : EN DTS 5,1
    Jazyk                                    : English
    Default                                  : Ne
    Forced                                   : Ne

    Audio #2
    ID                                       : 3
    Formát                                   : AC-3
    Formát/Info                              : Audio Coding 3
    Commercial name                          : Dolby Digital
    Codec ID                                 : A_AC3
    Duration                                 : 1 h 53 min
    Bit rate mode                            : Constant
    Bit rate                                 : 192 kb/s
    Kanál(y)                                 : 2 kanály
    Channel layout                           : L R
    Sampling rate                            : 48,0 kHz
    Frame rate                               : 31,250 FPS (1536 SPF)
    Compression mode                         : Lossy
    Video delay                              : 32 ms
    Stream size                              : 157 MiB (3%)
    Titul                                    : CZ AC3 DD 2.0
    Jazyk                                    : Czech
    Service kind                             : Complete Main
    Default                                  : Ano
    Forced                                   : Ne

    Text #1
    ID                                       : 4
    Formát                                   : ASS
    Codec ID                                 : S_TEXT/ASS
    Codec ID/Info                            : Advanced Sub Station Alpha
    Duration                                 : 1 h 47 min
    Bit rate                                 : 56 b/s
    Count of elements                        : 903
    Compression mode                         : Lossless
    Stream size                              : 44,3 KiB (0%)
    Titul                                    : EN tit
    Jazyk                                    : English
    Default                                  : Ne
    Forced                                   : Ne

    Text #2
    ID                                       : 5
    Formát                                   : UTF-8
    Codec ID                                 : S_TEXT/UTF8
    Codec ID/Info                            : UTF-8 Plain Text
    Duration                                 : 1 h 48 min
    Bit rate                                 : 26 b/s
    Count of elements                        : 784
    Stream size                              : 21,4 KiB (0%)
    Titul                                    : CZ tit
    Jazyk                                    : Czech
    Default                                  : Ne
    Forced                                   : Ne









    ONLINE











    SajmonModer, Jara72, Ram, gerbil, darkgirl, stetson2020, Jablonka,

    + Pridaj vlastnu verziu tohto torrentu +


    Upozornenie:
    Ziadny zo zobrazených súborov sa nenachádza na tomto serveri. Server slúzi len k síreniu vlastnorucne vytvorených aplikácií, videí, hudby ai. Autori stránok nenesú ziadnu zodpovednost za zverejnené odkazy, komentáre a obsah súborov. Vsetky komentáre, odkazy, súbory ktoré by svojou povahou mohli byt v rozpore zo zákonmi sem vkladáte na vlastnú zodpovednost. Autori stránok si vyhradzujú právo cenzúry odkazov, komentárov príp. súborov, ktoré by svojou povahou mohli byt v rozpore zo zákonmi a dobrými mravmi. Dodrzujte pravidlá!





    0
    davos8000
    Ratio 0.31

    Clen

    30/07/2021 12.28.40
    Můžeš nahodit teto film Star Wars: Epizoda VI - Návrat Jediho remastered cz dabing předem díky.


    --------------
    >> 30/07/2021 22.01.01
    UPLOADER: Máš ho tam

    0
    SajmonModer
    Ratio 8.92

    VIP

    30/07/2021 00.01.18
    Děkuji moc! Film mého děctví, ještě tenkrát na starých VHS


    --------------
    >> 30/07/2021 08.44.44
    UPLOADER: Neni zač


    Back

    Na serveru se nenalézají zádne soubory. Za odkazy jsou výhradně zodpovědní uzivatelé a návstěvníci tohoto trackeru. Administrátor není zodpovědný za pridaný obsah ani za skody zpusobené uzivateli. Rozsirovat stránku nebo její obsah bez souhlasu ownera je zakázano. Nesmíte pouzívat tuto webovou stránku pro distribuovaní nebo download zádného materiálu pokud nemáte povolení od príslusného vlastníka práv. Uzivatelé jsou zodpovědní za dodrzování těchto pravidel a podmínek. Owner má právo kdykoliv změnit pravidla tohoto trackeru.

    [ Script trval: 0.025 sec. ] - [ GZIP: enabled ]
    Je zhruba 00:46

    TOPlist