Tvoj účet nieje VIP.
Preto sú tvoje funkcie a možnosti značne obmedzené.
Pre aktiváciu VIP klikni sem.

Hugo z hor (1987) = CSFD 73% | SkTorrent.eu

Cz-SkTorrent open Tracker, na volné zdieľanie súborov. Pridajte sa k našej komunite a získajte prístup k tisícom torrentov.

  • vysoká rýchlosť
  • úplne zdarma
  • prevažne Slovenská a Česká scéna
  • ste tu s nami už 10 rokov - Ďakujeme
  • Vitaj Guest (Login) Ako stahovat
    torrenty?
    Torrenty:
    v1 textová
    v2 obrázková
    Ako sa stat
    Uploaderom
    Online
    Filmy
    Forum
    Pravidlá
    SkTSocial
    BitTorrent
    klient
    Meno: Heslo:
    Zaregistrovat
    Po zaregistrovaní mozte volne stahovat
    Zabudol som heslo

    Hugo z hor (1987) = CSFD 73% Názov:Hugo z hor (1987) = CSFD 73% Hodnocení: Stiahnut
    Pozriet Online
    Kategória:Seriál - Velikost:840.3 MB BitTorrent klient
    Pridaný: Súbory:
    Skontrolován:2024-06-27 Peerov:23 (Seed: 23, Leech: 0)
    Zaner:Animovany,Rodinny Uploader:Uvidis, az ked budes
    VIP
    Kúp nám Pivo 1,10€

    Kúp nám Pivo

    Pridaj do zalozky
    Pridaj do zalozky




    Kreslený seriál vypráví o příhodách jednoho profesora a sněžného muže Huga, kterého si z výzkumné výpravy přiveze domů. Ten se mezi lidmi snaží pochytit jejich návyky a nejraději se kamarádí s dětmi. Setkání Huga s lidmi vyvolává mnoho veselých příhod a zápletek, přesto by se ale Hugo zase rád vrátil domů. Osmidílný veselý seriál Hugo z hor, jehož autorem je Rudolf Čechura, svým vyprávěním doprovází Petr Nárožný(pfa)


    Hlavní
    Celý název a cesta                       : C:\Users\Tomáš\Downloads\Sněžný muž Hugo\1.mp4
    Formát                                   : MPEG-4
    Format profile                           : Base Media
    Codec ID                                 : isom (isom/iso2/avc1/mp41)
    Velikost souboru                         : 98,5 MiB
    Duration                                 : 7 min 45 s
    Overall bit rate mode                    : Variable
    Celkový BitRate                          : 1 777 kb/s
    Frame rate                               : 25,000 FPS
    Název filmu                              : 1
    Performer                                : VideoProc Converter AI
    žánr                                     : Video
    Použitý software                         : Lavf60.3.100
    Komentář                                 : 1

    Video
    ID                                       : 1
    Formát                                   : AVC
    Formát/Info                              : Advanced Video Codec
    Format profile                           : Constrained Baseline@L3.2
    Format settings                          : 3 Ref Frames
    Format settings, CABAC                   : Ne
    Format settings, Reference frames        : 3 frames
    Codec ID                                 : avc1
    Codec ID/Info                            : Advanced Video Coding
    Duration                                 : 7 min 45 s
    Bit rate mode                            : Variable
    Bit rate                                 : 1 612 kb/s
    Maximum bit rate                         : 16,0 Mb/s
    Šířka                                    : 960pixely
    Výška                                    : 720pixely
    Poměr stran                              : 4:3
    Frame rate mode                          : Constant
    Frame rate                               : 25,000 FPS
    Color space                              : YUV
    Chroma subsampling                       : 4:2:0
    Bit depth                                : 8 bits
    Scan type                                : Progressive
    Bits/(Pixel*Frame)                       : 0.093
    Stream size                              : 89,4 MiB (91%)
    Codec configuration box                  : avcC

    Audio
    ID                                       : 2
    Formát                                   : AAC LC
    Formát/Info                              : Advanced Audio Codec Low Complexity
    Codec ID                                 : mp4a-40-2
    Duration                                 : 7 min 45 s
    Source duration                          : 7 min 45 s
    Source_Duration_LastFrame                : -21 ms
    Bit rate mode                            : Constant
    Bit rate                                 : 160 kb/s
    Kanál(y)                                 : 2 kanály
    Channel layout                           : L R
    Sampling rate                            : 44,1 kHz
    Frame rate                               : 43,066 FPS (1024 SPF)
    Compression mode                         : Lossy
    Stream size                              : 8,87 MiB (9%)
    Source stream size                       : 8,87 MiB (9%)
    Default                                  : Ano
    Alternate group                          : 1


    https://www.youtube.com/watch?v=6fTgYLz0IeM

    https://www.csfd.cz/film/230270-hugo-z-hor/prehled/
     








    matrix0007, pohee, BERUJIZEZADU, Adnay, skarpa,

    + Pridaj vlastnu verziu tohto torrentu +


    Upozornenie:
    Ziadny zo zobrazených súborov sa nenachádza na tomto serveri. Server slúzi len k síreniu vlastnorucne vytvorených aplikácií, videí, hudby ai. Autori stránok nenesú ziadnu zodpovednost za zverejnené odkazy, komentáre a obsah súborov. Vsetky komentáre, odkazy, súbory ktoré by svojou povahou mohli byt v rozpore zo zákonmi sem vkladáte na vlastnú zodpovednost. Autori stránok si vyhradzujú právo cenzúry odkazov, komentárov príp. súborov, ktoré by svojou povahou mohli byt v rozpore zo zákonmi a dobrými mravmi. Dodrzujte pravidlá!


    No comments...


    Back

    Na serveru se nenalézají zádne soubory. Za odkazy jsou výhradně zodpovědní uzivatelé a návstěvníci tohoto trackeru. Administrátor není zodpovědný za pridaný obsah ani za skody zpusobené uzivateli. Nesmíte pouzívat tuto webovou stránku pro distribuovaní nebo download zádného materiálu pokud nemáte povolení od príslusného vlastníka práv. Uzivatelé jsou zodpovědní za dodrzování těchto pravidel a podmínek. Owner má právo kdykoliv změnit pravidla tohoto trackeru.

    [ Script trval: 0.016 sec. ] - [ GZIP: enabled ]
    Je zhruba 15:24
    sql

    TOPlist