Tvoj účet nieje VIP.
Preto sú tvoje funkcie a možnosti značne obmedzené.
Pre aktiváciu VIP klikni sem.

Interracial Family Affairs 2 (2015) | SkTorrent.eu

Cz-SkTorrent open Tracker, na volné zdielanie súborov. Pridajte sa k nasej komunite a získajte pristup k tisícom torrentov.

  • vysoká rýchlost
  • úplne zdarma
  • prevazne Slovenska a Ceska scena
  • ste tu s nami uz 5 rokov - Dakujeme
  • Vitaj Guest (Login) Ako stahovat
    torrenty?
    Torrenty:
    v1 textová
    v2 obrázková
    v3 online filmy
    Ako sa stat
    Uploaderom
    Online
    Filmy
    Forum
    Pravidlá
    BitTorrent
    klient
    pruzinky
    Meno: Heslo:
    Zaregistrovat
    Po zaregistrovaní mozte volne stahovat
    Zabudol som heslo

    Torrent's details
    Interracial Family Affairs 2 (2015) Názov:Interracial Family Affairs 2 (2015) Hodnocení: Stiahnut
    Pozriet Online
    Kategória:xXx Velikost:2.0 GB BitTorrent klient
    Pridaný: Súbory:
    Skontrolován:2016-02-01 Peerov:0 (Seed: 0, Leech: 0)
    Zaner: Uploader:Uvidis, az ked budes
    VIP
    Kúp nám Pivo 1,10€

    Kúp nám Pivo
    Podporte nas na Facebooku !
    Pridaj do zalozky
    Pridaj do zalozky







    Obal:
    Jazyk: de
    Titulky: ne
    Odkaz na CSFD: ne
    Rok vydání: 2015
    Délka: 1h. 37min.
    ®ánr: xxx
    Screen:


    Mediainfo:Format: MPEG-4
    Format profile: Base Media
    Codec ID: isom
    File size: 2.01 GiB
    Duration: 1h 37mn
    Overall bit rate mode: Variable
    Overall bit rate: 2 961 Kbps
    Encoded date: UTC 2016-01-10 14:30:46
    Tagged date: UTC 2016-01-10 14:30:46
    Writing application: Lavf51.12.1

    Video
    Format: AVC
    Format/Info: Advanced Video Codec
    Format profile: Baseline@L3.0
    Format settings, CABAC: No
    Format settings, ReFrames: 1 frame
    Format settings, GOP: M=1, N=12
    Codec ID: avc1
    Codec ID/Info: Advanced Video Coding
    Duration: 1h 37mn
    Bit rate mode: Variable
    Bit rate: 2 805 Kbps
    Maximum bit rate: 3 369 Kbps
    Width: 848 pixels
    Height: 480 pixels
    Display aspect ratio: 16:9
    Frame rate mode: Constant
    Frame rate: 29.970 fps
    Original frame rate: 24.000 fps
    Color space: YUV
    Chroma subsampling: 4:2:0
    Bit depth: 8 bits
    Scan type: Progressive
    Bits/(Pixel*Frame): 0.230
    Stream size: 1.91 GiB (95%)
    Encoded date: UTC 2016-01-10 14:30:46
    Tagged date: UTC 2016-01-10 14:30:46

    Audio
    Format: AAC
    Format/Info: Advanced Audio Codec
    Format profile: LC
    Codec ID: 40
    Duration: 1h 37mn
    Bit rate mode: Variable
    Bit rate: 151 Kbps
    Channel(s): 2 channels
    Channel positions: Front: L R
    Sampling rate: 44.1 KHz
    Compression mode: Lossy
    Stream size: 105 MiB (5%)
    Encoded date: UTC 2016-01-10 14:30:46
    Tagged date: UTC 2016-01-10 14:30:46







    + Pridaj vlastnu verziu tohto torrentu +


    Upozornenie:
    Ziadny zo zobrazených súborov sa nenachádza na tomto serveri. Server slúzi len k síreniu vlastnorucne vytvorených aplikácií, videí, hudby ai. Autori stránok nenesú ziadnu zodpovednost za zverejnené odkazy, komentáre a obsah súborov. Vsetky komentáre, odkazy, súbory ktoré by svojou povahou mohli byt v rozpore zo zákonmi sem vkladáte na vlastnú zodpovednost. Autori stránok si vyhradzujú právo cenzúry odkazov, komentárov príp. súborov, ktoré by svojou povahou mohli byt v rozpore zo zákonmi a dobrými mravmi. Dodrzujte pravidlá!


    No comments...


    Back

    Na serveru se nenalézají zádne soubory. Za odkazy jsou výhradně zodpovědní uzivatelé a návstěvníci tohoto trackeru. Administrátor není zodpovědný za pridaný obsah ani za skody zpusobené uzivateli. Rozsirovat stránku nebo její obsah bez souhlasu ownera je zakázano. Nesmíte pouzívat tuto webovou stránku pro distribuovaní nebo download zádného materiálu pokud nemáte povolení od príslusného vlastníka práv. Uzivatelé jsou zodpovědní za dodrzování těchto pravidel a podmínek. Owner má právo kdykoliv změnit pravidla tohoto trackeru.

    [ Script trval: 0.027 sec. ] - [ GZIP: enabled ]
    BtiTracker (1.4.8) by Btiteam
    Je zhruba 02:59

    TOPlist