Tvoj účet nieje VIP.
Preto sú tvoje funkcie a možnosti značne obmedzené.
Pre aktiváciu VIP klikni sem.

Iron Man XXX Parody | SkTorrent.eu

Cz-SkTorrent open Tracker, na volné zdielanie súborov. Pridajte sa k nasej komunite a získajte pristup k tisícom torrentov.

  • vysoká rýchlost
  • úplne zdarma
  • prevazne Slovenska a Ceska scena
  • ste tu s nami uz 5 rokov - Dakujeme
  • Vitaj Guest (Login) Ako stahovat
    torrenty?
    Torrenty:
    v1 textová
    v2 obrázková
    v3 online filmy
    Ako sa stat
    Uploaderom
    Online
    Filmy
    Forum
    Pravidlá
    BitTorrent
    klient
    pruzinky
    Meno: Heslo:
    Zaregistrovat
    Po zaregistrovaní mozte volne stahovat
    Zabudol som heslo

    Torrent's details
    Iron Man XXX Parody Názov:Iron Man XXX Parody Hodnocení: Stiahnut
    Pozriet Online
    Kategória:xXx Velikost:879.5 MB BitTorrent klient
    Pridaný: Súbory:
    Skontrolován:2020-03-27 Peerov:1 (Seed: 1, Leech: 0)
    Zaner: Uploader:Uvidis, az ked budes
    VIP
    Kúp nám Pivo 1,10€

    Kúp nám Pivo
    Podporte nas na Facebooku !
    Pridaj do zalozky
    Pridaj do zalozky




    NÁZEV:
    Iron Man XXX Parody

    DÉLKA:
    1h 39min

    HRAJÍ:
    Dale DaBone,Dana DeArmond, Lexington Steele, Lexi Belle, Skin Diamond, Derrick Pierce, Brooklyn Lee, Alec Knight, Shazia Sahari, Jazy Berlin, Robert McEvilly

    MEDIA INFO:
    General
    Complete name: Iron.Man.XXX.An.Axel.Braun.Parody.XXX.DVDRip.x264.mp4
    Format: MPEG-4
    Format profile: Base Media
    Codec ID: isom (isom)
    File size: 880 MiB
    Duration: 1 h 39 min
    Overall bit rate mode: Variable
    Overall bit rate: 1 230 kb/s
    Encoded date: UTC 2013-05-29 06:02:27
    Tagged date: UTC 2013-05-29 06:02:27

    Video
    ID: 1
    Format: AVC
    Format/Info: Advanced Video Codec
    Format profile: High@L3.1
    Format settings: CABAC / 5 Ref Frames
    Format settings, CABAC: Yes
    Format settings, ReFrames: 5 frames
    Codec ID: avc1
    Codec ID/Info: Advanced Video Coding
    Duration: 1 h 39 min
    Bit rate: 1 178 kb/s
    Maximum bit rate: 7 915 kb/s
    Width: 720 pixels
    Height: 400 pixels
    Display aspect ratio: 16:9
    Frame rate mode: Constant
    Frame rate: 23.976 (24000/1001) FPS
    Color space: YUV
    Chroma subsampling: 4:2:0
    Bit depth: 8 bits
    Scan type: Progressive
    Bits/(Pixel*Frame): 0.171
    Stream size: 842 MiB (96%)
    Writing library : x264 core 130 r2273 b3065e6
    Encoding settings: cabac=1 / ref=5 / deblock=1:0:0 / analyse=0x3:0x113 / me=umh / subme=8 / psy=1 / psy_rd=1.00:0.00 / mixed_ref=1 / me_range=16 / chroma_me=1 / trellis=1 / 8x8dct=1 / cqm=0 / deadzone=21,11 / fast_pskip=0 / chroma_qp_offset=-2 / threads=12 / lookahead_threads=2 / sliced_threads=0 / nr=0 / decimate=1 / interlaced=0 / bluray_compat=0 / constrained_intra=0 / bframes=3 / b_pyramid=2 / b_adapt=2 / b_bias=0 / direct=3 / weightb=1 / open_gop=0 / weightp=2 / keyint=240 / keyint_min=23 / scenecut=40 / intra_refresh=0 / rc_lookahead=50 / rc=crf / mbtree=1 / crf=19.0 / qcomp=0.60 / qpmin=0 / qpmax=69 / qpstep=4 / ip_ratio=1.40 / aq=1:1.00
    Encoded date: UTC 2013-05-29 04:04:06
    Tagged date: UTC 2013-05-29 06:05:10
    Codec configuration box: avcC

    Audio
    ID: 2
    Format: AAC LC
    Format/Info: Advanced Audio Codec Low Complexity
    Codec ID: mp4a-40-2
    Duration: 1 h 39 min
    Bit rate mode: Variable
    Bit rate: 48.0 kb/s
    Maximum bit rate: 57.9 kb/s
    Channel(s): 2 channels
    Channel layout: L R
    Sampling rate: 48.0 kHz
    Frame rate: 46.875 FPS (1024 SPF)
    Compression mode: Lossy
    Stream size: 34.3 MiB (4%)
    Encoded date: UTC 2013-05-29 04:38:43
    Tagged date: UTC 2013-05-29 06:05:10



    ...



    COVER:









    Martinozo,

    + Pridaj vlastnu verziu tohto torrentu +


    Upozornenie:
    Ziadny zo zobrazených súborov sa nenachádza na tomto serveri. Server slúzi len k síreniu vlastnorucne vytvorených aplikácií, videí, hudby ai. Autori stránok nenesú ziadnu zodpovednost za zverejnené odkazy, komentáre a obsah súborov. Vsetky komentáre, odkazy, súbory ktoré by svojou povahou mohli byt v rozpore zo zákonmi sem vkladáte na vlastnú zodpovednost. Autori stránok si vyhradzujú právo cenzúry odkazov, komentárov príp. súborov, ktoré by svojou povahou mohli byt v rozpore zo zákonmi a dobrými mravmi. Dodrzujte pravidlá!


    No comments...


    Back

    Na serveru se nenalézají zádne soubory. Za odkazy jsou výhradně zodpovědní uzivatelé a návstěvníci tohoto trackeru. Administrátor není zodpovědný za pridaný obsah ani za skody zpusobené uzivateli. Rozsirovat stránku nebo její obsah bez souhlasu ownera je zakázano. Nesmíte pouzívat tuto webovou stránku pro distribuovaní nebo download zádného materiálu pokud nemáte povolení od príslusného vlastníka práv. Uzivatelé jsou zodpovědní za dodrzování těchto pravidel a podmínek. Owner má právo kdykoliv změnit pravidla tohoto trackeru.

    [ Script trval: 0.021 sec. ] - [ GZIP: enabled ]
    BtiTracker (1.4.8) by Btiteam
    Je zhruba 00:52

    TOPlist