Tvoj účet nieje VIP.
Preto sú tvoje funkcie a možnosti značne obmedzené.
Pre aktiváciu VIP klikni sem.

Jak vycvicit draka / How to Train Your Dragon (2010)(CZ) = CSFD 86% | SkTorrent.eu

Cz-SkTorrent open Tracker, na volné zdielanie súborov. Pridajte sa k nasej komunite a získajte pristup k tisícom torrentov.

  • vysoká rýchlost
  • úplne zdarma
  • prevazne Slovenska a Ceska scena
  • ste tu s nami uz 5 rokov - Dakujeme
  • Vitaj Guest (Login) Ako stahovat
    torrenty?
    Torrenty:
    v1 textová
    v2 obrázková
    v3 online filmy
    Ako sa stat
    Uploaderom
    Online
    Filmy
    Forum
    Pravidlá
    BitTorrent
    klient
    Meno: Heslo:
    Zaregistrovat
    Po zaregistrovaní mozte volne stahovat
    Zabudol som heslo

    Torrent's details
    Jak vycvicit draka / How to Train Your Dragon (2010)(CZ) = CSFD 86% Názov:Jak vycvicit draka / How to Train Your Dragon (2010)(CZ) = CSFD 86% Hodnocení: Stiahnut
    Pozriet Online
    Kategória:Filmy Kreslené Velikost:2.2 GB BitTorrent klient
    Pridaný: Súbory:
    Skontrolován:2019-01-03 Peerov:16 (Seed: 16, Leech: 0)
    Zaner:Animovany,Dobrodruzny,Komedie,Rodinny Uploader:Uvidis, az ked budes
    VIP
    Kúp nám Pivo 1,10€

    Kúp nám Pivo
    Podporte nas na Facebooku !
    Pridaj do zalozky
    Pridaj do zalozky




    Délka: 97 minut
    Jazyk: CZ
    Titulky: NE
    Rok vydání: 2010
    Žánr: Animovaný / Dobrodružný / Rodinný / Fantasy
    CSFD: http://www.csfd.cz/film/234768-jak-vycvicit-draka/



    Viděli jste už trojrozměrného draka? A Vikinga? Pokud ne, budete mít příležitost v animované komedii Jak vycvičit draka od studia DreamWorks. Rodičové chlupaté Kung Fu Pandy a zeleného zlobráka Shreka se tentokrát rozhodli pro podívanou, která je ve všech ohledech poněkud drsnější. Jejich nejnovější dobrodružství se odehrává na drsném Severu, který obývají ještě drsnější Vikingové a spolu s nimi i draci. Ti jsou jednoznačně nejdrsnější.

    Jediný, kdo není drsný ani trochu, je hlavní hrdina Škyťák. Vikinský teenager nějak nemůže zapadnout mezi ostatní obyvatele rodného ostrova Blpu, protože na rozdíl od nich spíš než svaly (kterých má pomálu), používá hlavu. Asi by se to dalo přejít, kdyby Škyťák nebyl synem náčelníka vesnice, Kliďase Velikána. Taťka má syna rád, ale bohužel si uvědomuje jeho „nedostatečnost“. Zvlášť když se blíží Škyťákovo iniciační uvedení mezi dospělé Vikingy, které lze úspěšně absolvovat jediným způsobem – zabitím draka v souboji. Draci jsou totiž na Blpu jediným, zato permanentním problémem. Desítky druhů létajících ještěrů prakticky neustále útočí na vesnici, kradou domácí zvířata, spalují úrodu i hospodářská stavení, a tak je morální povinností každého Vikinga bojovat proti drakům, jak se dá. I Škyťák by samozřejmě rád nějakého toho Nodra smrťáka, Ohavného zipáka nebo Hrůzáka hrozivého skolil, jenže matička příroda ho na to opravdu vybavila nevalně. Nepomáhají ani užitečné lekce v Drakoškole místního samorosta, kováře Tlamouna. Škyťák je naštěstí hlava otevřená a tam, kde schází hrubá síla, pomůže hlava, díky níž zkonstruuje samostříl, kterým zaútočí na nejobávanějšího z draků, prakticky nepolapitelnou Noční fúrii. Jediný výstřel (velmi úspěšný) změní budoucnost soužití lidského a dračího plemene na ostrově Blpu. Když se totiž Škyťák vydá zraněného draka dorazit a stát se tak definitivně mužem, cosi se v něm při pohledu do jasných dračích očí zlomí. A ten zlom bude začátkem jednoho krásného přátelství. Teď už jen zbývá přesvědčit ostatní Vikingy, že skutečný nepřítel číhá jinde.




    Video
    ID: 0
    Format: MPEG-4 Visual
    Format profile: Advanced Simple@L5
    Format settings, BVOP: Yes
    Format settings, QPel: No
    Format settings, GMC: No warppoints
    Format settings, Matrix: Custom
    Muxing mode: Packed bitstream
    Codec ID: XVID
    Codec ID/Hint: XviD
    Duration: 1h 37mn
    Bit rate: 2 731 Kbps
    Width: 1 280 pixels
    Height: 544 pixels
    Display aspect ratio: 2.35:1
    Frame rate: 23.976 fps
    Color space: YUV
    Chroma subsampling: 4:2:0
    Bit depth: 8 bits
    Scan type: Progressive
    Bits/(Pixel*Frame): 0.164
    Stream size: 1.87 GiB (86%)
    Writing library: XviD 1.2.1 (UTC 2008-12-04)

    Audio
    ID: 1
    Format: AC-3
    Format/Info: Audio Coding 3
    Mode extension: CM (complete main)
    Codec ID: 2000
    Duration: 1h 37mn
    Bit rate mode: Constant
    Bit rate: 448 Kbps
    Channel(s): 6 channels
    Channel positions: Front: L C R, Side: L R, LFE
    Sampling rate: 48.0 KHz
    Bit depth: 16 bits
    Stream size: 314 MiB (14%)
    Alignment: Split accross interleaves
    Interleave, duration: 42 ms (1.00 video frame)
    Interleave, preload duration: 500 ms





    Upozornenie:
    Ziadny zo zobrazených súborov sa nenachádza na tomto serveri. Server slúzi len k síreniu vlastnorucne vytvorených aplikácií, videí, hudby ai. Autori stránok nenesú ziadnu zodpovednost za zverejnené odkazy, komentáre a obsah súborov. Vsetky komentáre, odkazy, súbory ktoré by svojou povahou mohli byt v rozpore zo zákonmi sem vkladáte na vlastnú zodpovednost. Autori stránok si vyhradzujú právo cenzúry odkazov, komentárov príp. súborov, ktoré by svojou povahou mohli byt v rozpore zo zákonmi a dobrými mravmi. Dodrzujte pravidlá!





    0
    lokaltv

    Clen
    05/07/2014 21.32.22
    Odpovedat

    Toto isté som videl aj na cztrackery Presne 2.18 giga aj ten istý názov torrentu ..

    0
    Daliborovo

    Clen
    12/10/2013 08.38.37
    Odpovedat

    vynikající.....


    Back

    Na serveru se nenalézají zádne soubory. Za odkazy jsou výhradně zodpovědní uzivatelé a návstěvníci tohoto trackeru. Administrátor není zodpovědný za pridaný obsah ani za skody zpusobené uzivateli. Rozsirovat stránku nebo její obsah bez souhlasu ownera je zakázano. Nesmíte pouzívat tuto webovou stránku pro distribuovaní nebo download zádného materiálu pokud nemáte povolení od príslusného vlastníka práv. Uzivatelé jsou zodpovědní za dodrzování těchto pravidel a podmínek. Owner má právo kdykoliv změnit pravidla tohoto trackeru.

    [ Script trval: 0.024 sec. ] - [ GZIP: enabled ]
    BtiTracker (1.4.8) by Btiteam
    Je zhruba 21:49

    TOPlist