Tvoj účet nieje VIP.
Preto sú tvoje funkcie a možnosti značne obmedzené.
Pre aktiváciu VIP klikni sem.

Jenicek a Marenka: Lovci carodejnic / Hansel & Gretel: Witch Hunters (2013)(CZ) = CSFD 68% | SkTorrent.eu

Cz-SkTorrent open Tracker, na volné zdielanie súborov. Pridajte sa k nasej komunite a získajte pristup k tisícom torrentov.

  • vysoká rýchlost
  • úplne zdarma
  • prevazne Slovenska a Ceska scena
  • ste tu s nami uz 5 rokov - Dakujeme
  • Vitaj Guest (Login) Ako stahovat
    torrenty?
    Torrenty:
    v1 textová
    v2 obrázková
    v3 online filmy
    Ako sa stat
    Uploaderom
    Online
    Filmy
    Forum
    Pravidlá
    BitTorrent
    klient
    Meno: Heslo:
    Zaregistrovat
    Po zaregistrovaní mozte volne stahovat
    Zabudol som heslo

    Torrent's details
    Jenicek a Marenka: Lovci carodejnic / Hansel & Gretel: Witch Hunters (2013)(CZ) = CSFD 68% Názov:Jenicek a Marenka: Lovci carodejnic / Hansel & Gretel: Witch Hunters (2013)(CZ) = CSFD 68% Hodnocení: Stiahnut
    Pozriet Online
    Kategória:Filmy CZ/SK dabing Velikost:707.0 MB BitTorrent klient
    Pridaný: Súbory:
    Skontrolován:2014-02-10 Peerov:0 (Seed: 0, Leech: 0)
    Zaner:Akcni,Dobrodruzny,Fantasy,Horor Uploader:Uvidis, az ked budes
    VIP
    Kúp nám Pivo 1,10€

    Kúp nám Pivo
    Podporte nas na Facebooku !
    Pridaj do zalozky
    Pridaj do zalozky






    Jazyk: Cz
    Titulky: Ne
    Odkaz na CSFD: http://www.csfd.cz/film/269437-jenicek-a-marenka-lovci-carodejnic
    http://www.csfd.cz/film/269437-jenicek-a-marenka-lovci-carodejnic/
    Rok vydání: USA / Německo, 2013
    Délka: 87 min
    Žánr: Fantasy / Horor / Akční



    Jestli jste jako malí tuhle klasickou pohádku neslyšeli, tvůrci vám ji v průběhu úvodních titulků pro jistotu odvyprávějí. Pak už se ale jde na věc. Ocitáme se v typickém středověkém městečku, které sužují obvyklé dobové problémy, včetně únosů místních dětí, jež prý mají na svědomí čarodějnice obývající okolní hluboké lesy. Zdejší ochránce zákona (Peter Stormare) sice tvrdí, že na to stačí sám, ale očividně si lže do kapsy. Starosta proto pozve na záchrannou misi dvě celebrity, legendární lovce čarodějnic Jeníčka a Mařenku. Sourozenci se pustí po stopách únosců s vervou sobě vlastní a jejich práce brzy začne přinášet výsledky. Bohužel jiné, než jaké by si přáli. Zjistí totiž, že proti nim stojí síly mnohokrát mocnější než všechno, čemu museli doposud čelit. Navzdory Jeníčkově cukrovce (jako malý se jednou přejedl perníkem, chudák!) a Mařenčinu kostlivci ve skříni, o němž se nesluší mluvit, se pustí do boje proti mocné přesile, ale zda se i tentokrát dočkají šťastného konce, je ve hvězdách.




    MediainfoFormat: AVI
    Format/Info: Audio Video Interleave
    File size: 707 MiB
    Duration: 1h 27mn
    Overall bit rate: 1 124 Kbps
    Writing application: VirtualDubMod 1.5.10.2 (build 2542/release)
    Writing library: VirtualDubMod build 2542/release

    Video
    ID: 0
    Format: MPEG-4 Visual
    Format profile: Advanced Simple@L5
    Format settings, BVOP: 2
    Format settings, QPel: No
    Format settings, GMC: No warppoints
    Format settings, Matrix: Default (H.263)
    Muxing mode: Packed bitstream
    Codec ID: XVID
    Codec ID/Hint: XviD
    Duration: 1h 27mn
    Bit rate: 984 Kbps
    Width: 640 pixels
    Height: 272 pixels
    Display aspect ratio: 2.35:1
    Frame rate: 25.000 fps
    Color space: YUV
    Chroma subsampling: 4:2:0
    Bit depth: 8 bits
    Scan type: Progressive
    Compression mode: Lossy
    Bits/(Pixel*Frame): 0.189
    Stream size: 619 MiB (88%)
    Writing library: XviD 64

    Audio
    ID: 1
    Format: AC-3
    Format/Info: Audio Coding 3
    Mode extension: CM (complete main)
    Format settings, Endianness: Big
    Codec ID: 2000
    Duration: 1h 27mn
    Bit rate mode: Constant
    Bit rate: 128 Kbps
    Channel(s): 2 channels
    Channel positions: Front: L R
    Sampling rate: 48.0 KHz
    Bit depth: 16 bits
    Compression mode: Lossy
    Stream size: 80.5 MiB (11%)
    Alignment: Split accross interleaves
    Interleave, duration: 33 ms (1.00 video frame)
    Interleave, preload duration             : 500 ms





    ONLINE











    milanuska, ondrejvaradi,

    + Pridaj vlastnu verziu tohto torrentu +


    Upozornenie:
    Ziadny zo zobrazených súborov sa nenachádza na tomto serveri. Server slúzi len k síreniu vlastnorucne vytvorených aplikácií, videí, hudby ai. Autori stránok nenesú ziadnu zodpovednost za zverejnené odkazy, komentáre a obsah súborov. Vsetky komentáre, odkazy, súbory ktoré by svojou povahou mohli byt v rozpore zo zákonmi sem vkladáte na vlastnú zodpovednost. Autori stránok si vyhradzujú právo cenzúry odkazov, komentárov príp. súborov, ktoré by svojou povahou mohli byt v rozpore zo zákonmi a dobrými mravmi. Dodrzujte pravidlá!


    No comments...


    Back

    Na serveru se nenalézají zádne soubory. Za odkazy jsou výhradně zodpovědní uzivatelé a návstěvníci tohoto trackeru. Administrátor není zodpovědný za pridaný obsah ani za skody zpusobené uzivateli. Rozsirovat stránku nebo její obsah bez souhlasu ownera je zakázano. Nesmíte pouzívat tuto webovou stránku pro distribuovaní nebo download zádného materiálu pokud nemáte povolení od príslusného vlastníka práv. Uzivatelé jsou zodpovědní za dodrzování těchto pravidel a podmínek. Owner má právo kdykoliv změnit pravidla tohoto trackeru.

    [ Script trval: 0.023 sec. ] - [ GZIP: enabled ]
    Je zhruba 19:46
    sql

    TOPlist