Tvoj účet nieje VIP.
Preto sú tvoje funkcie a možnosti značne obmedzené.
Pre aktiváciu VIP klikni sem.

Jidas a Cernej Mesias / Judas and the Black Messiah (2021)(EN+CZtit.)[2160p][HEVC] = CSFD 65% | SkTorrent.eu

Cz-SkTorrent open Tracker, na volné zdielanie súborov. Pridajte sa k nasej komunite a získajte pristup k tisícom torrentov.

  • vysoká rýchlost
  • úplne zdarma
  • prevazne Slovenska a Ceska scena
  • ste tu s nami uz 5 rokov - Dakujeme
  • Vitaj Guest (Login) Ako stahovat
    torrenty?
    Torrenty:
    v1 textová
    v2 obrázková
    v3 online filmy
    Ako sa stat
    Uploaderom
    Online
    Filmy
    Forum
    Pravidlá
    BitTorrent
    klient
    Meno: Heslo:
    Zaregistrovat
    Po zaregistrovaní mozte volne stahovat
    Zabudol som heslo

    Torrent's details
    Jidas a Cernej Mesias / Judas and the Black Messiah (2021)(EN+CZtit.)[2160p][HEVC] = CSFD 65% Názov:Jidas a Cernej Mesias / Judas and the Black Messiah (2021)(EN+CZtit.)[2160p][HEVC] = CSFD 65% Hodnocení: Stiahnut
    Pozriet Online
    Kategória:UHD Filmy Velikost:16.3 GB BitTorrent klient
    Pridaný: Súbory:
    Skontrolován:2021-07-18 Peerov:6 (Seed: 5, Leech: 1)
    Zaner:Drama,Historicky,Zivotopisny Uploader:Uvidis, az ked budes
    VIP
    Kúp nám Pivo 1,10€

    Kúp nám Pivo
    Podporte nas na Facebooku !
    Pridaj do zalozky
    Pridaj do zalozky




    Jidas a Cernej Mesias / Judas and the Black Messiah (2021) = CSFD 65%



           

    Jazyk: anglický
    Titulky: české, anglické, španielske
    Zdroj CZ tituliek: titulky.com - Jazzmersiless
    Žáner: Drama / Životopisný / Historický
    Témy: smrt, policie, podle skutečného příběhu, FBI, rasismus, protestní hnutí, Black Panther
    USA, 2021, 126 min

    Režie: Shaka King
    Scénář: Will Berson, Shaka King
    Kamera: Sean Bobbitt
    Hudba: Craig Harris, Mark Isham
    Hrajú: Daniel Kaluuya, Lakeith Stanfield, Jesse Plemons, Martin Sheen, Dominique Fishback, Ashton Sanders, Lil Rel Howery, Dominique Thorne...

    Popis
    Bill O'Neal (LaKeith Stanfield) je prostý zloděj aut, který se však kvůli vydávání za agenta FBI dostane až před potenciální verdikt několika let za mřížemi. Roy Mitchell (Jesse Plemons) ze skutečné FBI mu však nabízí, že by taky mohl jednoduše odejít domů. Pro vymazání trestního rejstříku by ale musel něco udělat; vetřít se do přízně hlavy Černých panterů, radikálního aktivisty Freda Hamptona, a donášet informace. Brzy se po něm však začne chtít mnohem víc, a Bill tak přichází na to, že nepůjde jen o Hamptonův život, ale i o ten jeho.





       

    Hlavní
    Formát: Matroska
    Format version: Version 4
    Velikost souboru: 16,3 GiB
    Duration: 2 h 5 min
    Celkový BitRate: 18,6 Mb/s
    Použitý software: mkvmerge v49.0.0 ('Sick Of Losing Soulmates') 64-bit
    Enkódoval: libebml v1.4.0 + libmatroska v1.6.1

    Video
    Formát: HEVC
    Formát/Info: High Efficiency Video Coding
    Format profile: Main 10@L5@Main
    Codec ID: V_MPEGH/ISO/HEVC
    Duration: 2 h 5 min
    Bit rate: 17,4 Mb/s
    Šířka: 3 840pixely
    Výška: 2 160pixely
    Poměr stran: 16:9
    Frame rate mode: Constant
    Frame rate: 23,976 (24000/1001) FPS
    Color space: YUV
    Chroma subsampling: 4:2:0
    Bit depth: 10 bits
    Bits/(Pixel*Frame): 0.088
    Stream size: 15,3 GiB (94%)
    Enkódoval: x265 3.4hy:[Linux][GCC 7.5.0][64 bit] 10bit
    Default: Ano
    Forced: Ne
    Color range: Limited
    Color primaries: BT.2020
    Transfer characteristics: PQ
    Matrix coefficients: BT.2020 non-constant
    Maximum Content Light Level: 204 cd/m2
    Maximum Frame-Average Light Level: 55 cd/m2

    Audio
    Formát: E-AC-3 JOC
    Formát/Info: Enhanced AC-3 with Joint Object Coding
    Commercial name: Dolby Digital Plus with Dolby Atmos
    Codec ID: A_EAC3
    Duration: 2 h 5 min
    Bit rate mode: Constant
    Bit rate: 768 kb/s
    Kanál(y): 6 kanály
    Channel layout: L R C LFE Ls Rs
    Sampling rate: 48,0 kHz
    Frame rate: 31,250 FPS (1536 SPF)
    Compression mode: Lossy
    Stream size: 689 MiB (4%)
    Jazyk: English
    Service kind: Complete Main
    Default: Ano
    Forced: Ne
    Complexity index: 16
    Number of dynamic objects: 15
    Bed channel count: 1 kanál
    Bed channel configuration: LFE

    Text #1
    Formát: UTF-8
    Codec ID: S_TEXT/UTF8
    Codec ID/Info: UTF-8 Plain Text
    Titul: English
    Jazyk: English
    Default: Ne
    Forced: Ne

    Text #2
    Formát: UTF-8
    Codec ID: S_TEXT/UTF8
    Codec ID/Info: UTF-8 Plain Text
    Titul: Latin America Spanish
    Jazyk: Spanish
    Default: Ne
    Forced: Ne









    Nixon88, marekbu, pepa49,

    + Pridaj vlastnu verziu tohto torrentu +


    Upozornenie:
    Ziadny zo zobrazených súborov sa nenachádza na tomto serveri. Server slúzi len k síreniu vlastnorucne vytvorených aplikácií, videí, hudby ai. Autori stránok nenesú ziadnu zodpovednost za zverejnené odkazy, komentáre a obsah súborov. Vsetky komentáre, odkazy, súbory ktoré by svojou povahou mohli byt v rozpore zo zákonmi sem vkladáte na vlastnú zodpovednost. Autori stránok si vyhradzujú právo cenzúry odkazov, komentárov príp. súborov, ktoré by svojou povahou mohli byt v rozpore zo zákonmi a dobrými mravmi. Dodrzujte pravidlá!


    No comments...


    Back

    Na serveru se nenalézají zádne soubory. Za odkazy jsou výhradně zodpovědní uzivatelé a návstěvníci tohoto trackeru. Administrátor není zodpovědný za pridaný obsah ani za skody zpusobené uzivateli. Rozsirovat stránku nebo její obsah bez souhlasu ownera je zakázano. Nesmíte pouzívat tuto webovou stránku pro distribuovaní nebo download zádného materiálu pokud nemáte povolení od príslusného vlastníka práv. Uzivatelé jsou zodpovědní za dodrzování těchto pravidel a podmínek. Owner má právo kdykoliv změnit pravidla tohoto trackeru.

    [ Script trval: 0.019 sec. ] - [ GZIP: enabled ]
    Je zhruba 16:14

    TOPlist