Tvoj účet nieje VIP.
Preto sú tvoje funkcie a možnosti značne obmedzené.
Pre aktiváciu VIP klikni sem.

Jupiter's Legacy (S01)(2021)(Hevc)(1080p)(HDR)(10bit)(WebDL)(Atmos-CZ+MultiLang)(MultiSub) = CSFD 63% | SkTorrent.eu

Cz-SkTorrent open Tracker, na volné zdieľanie súborov. Pridajte sa k našej komunite a získajte prístup k tisícom torrentov.

  • vysoká rýchlosť
  • úplne zdarma
  • prevažne Slovenská a Česká scéna
  • ste tu s nami už 10 rokov - Ďakujeme
  • Vitaj Guest (Login) Ako stahovat
    torrenty?
    Torrenty:
    v1 textová
    v2 obrázková
    Ako sa stat
    Uploaderom
    Online
    Filmy
    Forum
    Pravidlá
    SkTSocial
    BitTorrent
    klient
    Meno: Heslo:
    Zaregistrovat
    Po zaregistrovaní mozte volne stahovat
    Zabudol som heslo

    Jupiter's Legacy (S01)(2021)(Hevc)(1080p)(HDR)(10bit)(WebDL)(Atmos-CZ+MultiLang)(MultiSub) = CSFD 63% Názov:Jupiter's Legacy (S01)(2021)(Hevc)(1080p)(HDR)(10bit)(WebDL)(Atmos-CZ+MultiLang)(MultiSub) = CSFD 63% Hodnocení: Stiahnut
    Pozriet Online
    Kategória:Seriál - Velikost:10.4 GB BitTorrent klient
    Pridaný: Súbory:
    Skontrolován:2023-01-25 Peerov:15 (Seed: 14, Leech: 1)
    Zaner:Akcni,Dobrodruzny,Sci-Fi Uploader:Uvidis, az ked budes
    VIP
    Kúp nám Pivo 1,10€

    Kúp nám Pivo

    Pridaj do zalozky
    Pridaj do zalozky




    [center]







    Movie Name: Jupiter's Legacy (S01)(2021)(Complete)(HDR)
    IMDb Rating: 7.0/10

    Quality: 1080p (WebDL)
    Language: E-AC-3 5.1 640kb/s - English (Atmos) , Czech , Germany , Polish , Hungarian
    Subtitles: Multi
    Director: Steven S. DeKnight, Charlotte Brändström, Marc Jobst, Christopher J. Byrne
    Writers: Steven S. DeKnight, Julia Cooperman
    Genres: Action | Adventure | Drama |


    The first generation of superheroes has kept the world safe for nearly a century. Now their children must live up to their legacy in an epic drama that spans decades and navigates the dynamics of family, power and loyalty.




    [/center]
    Format                                   : Matroska
    Format version                           : Version 4
    File size                                : 1.31 GiB
    Duration                                 : 47 min 45 s
    Overall bit rate                         : 3 915 kb/s
    Movie name                               : Za ranních červánků
    Description                              : Brandon těžce pohoří, když se pokouší naplnit naděje, které do něj otec vkládá. Sheldonův bezstarostný život synova šéfa skončí v roce 1929 krachem.
    Writing application                      : Lavf58.76.100
    Writing library                          : Lavf58.76.100
    ErrorDetectionType                       : Per level 1
    EPISODE_ID                               : 1
    SEASON_NUMBER                            : 1
    SHOW                                     : Jupiter's Legacy

    Video
    ID                                       : 1
    Format                                   : HEVC
    Format/Info                              : High Efficiency Video Coding
    Format profile                           : Main 10@L4@Main
    HDR format                               : SMPTE ST 2086, HDR10 compatible
    Codec ID                                 : V_MPEGH/ISO/HEVC
    Duration                                 : 45 min 50 s
    Bit rate                                 : 509 kb/s
    Width                                    : 1 920 pixels
    Height                                   : 1 080 pixels
    Display aspect ratio                     : 16:9
    Frame rate mode                          : Constant
    Frame rate                               : 23.976 (24000/1001) FPS
    Color space                              : YUV
    Chroma subsampling                       : 4:2:0 (Type 2)
    Bit depth                                : 10 bits
    Bits/(Pixel*Frame)                       : 0.010
    Stream size                              : 167 MiB (12%)
    Writing library                          : HEVC Coding
    Default                                  : Yes
    Forced                                   : No
    Color range                              : Limited
    Color primaries                          : BT.2020
    Transfer characteristics                 : PQ
    Matrix coefficients                      : BT.2020 non-constant
    Mastering display color primaries        : Display P3
    Mastering display luminance              : min: 0.0001 cd/m2, max: 1000 cd/m2
    Maximum Content Light Level              : 1054 cd/m2
    Maximum Frame-Average Light Level        : 662 cd/m2
    VENDOR_ID                                : [0][0][0][0]

    Audio #1
    ID                                       : 2
    Format                                   : E-AC-3
    Format/Info                              : Enhanced AC-3
    Commercial name                          : Dolby Digital Plus
    Codec ID                                 : A_EAC3
    Duration                                 : 47 min 45 s
    Bit rate mode                            : Constant
    Bit rate                                 : 640 kb/s
    Channel(s)                               : 6 channels
    Channel layout                           : L R C LFE Ls Rs
    Sampling rate                            : 48.0 kHz
    Frame rate                               : 31.250 FPS (1536 SPF)
    Bit depth                                : 32 bits
    Compression mode                         : Lossy
    Stream size                              : 219 MiB (16%)
    Title                                    : čeština
    Language                                 : Czech
    Service kind                             : Complete Main
    Default                                  : Yes
    Forced                                   : No
    VENDOR_ID                                : [0][0][0][0]

    Audio #2
    ID                                       : 3
    Format                                   : E-AC-3
    Format/Info                              : Enhanced AC-3
    Commercial name                          : Dolby Digital Plus
    Codec ID                                 : A_EAC3
    Duration                                 : 47 min 45 s
    Bit rate mode                            : Constant
    Bit rate                                 : 640 kb/s
    Channel(s)                               : 6 channels
    Channel layout                           : L R C LFE Ls Rs
    Sampling rate                            : 48.0 kHz
    Frame rate                               : 31.250 FPS (1536 SPF)
    Bit depth                                : 32 bits
    Compression mode                         : Lossy
    Stream size                              : 219 MiB (16%)
    Title                                    : němčina
    Language                                 : German
    Service kind                             : Complete Main
    Default                                  : No
    Forced                                   : No
    VENDOR_ID                                : [0][0][0][0]

    Audio #3
    ID                                       : 4
    Format                                   : E-AC-3 JOC
    Format/Info                              : Enhanced AC-3 with Joint Object Coding
    Commercial name                          : Dolby Digital Plus with Dolby Atmos
    Codec ID                                 : A_EAC3
    Duration                                 : 47 min 45 s
    Bit rate mode                            : Constant
    Bit rate                                 : 768 kb/s
    Channel(s)                               : 6 channels
    Channel layout                           : L R C LFE Ls Rs
    Sampling rate                            : 48.0 kHz
    Frame rate                               : 31.250 FPS (1536 SPF)
    Bit depth                                : 32 bits
    Compression mode                         : Lossy
    Stream size                              : 262 MiB (20%)
    Title                                    : angličtina [Originál]
    Language                                 : English
    Service kind                             : Complete Main
    Default                                  : No
    Forced                                   : No
    VENDOR_ID                                : [0][0][0][0]
    Complexity index                         : 16
    Number of dynamic objects                : 15
    Bed channel count                        : 1 channel
    Bed channel configuration                : LFE

    Audio #4
    ID                                       : 5
    Format                                   : E-AC-3
    Format/Info                              : Enhanced AC-3
    Commercial name                          : Dolby Digital Plus
    Codec ID                                 : A_EAC3
    Duration                                 : 47 min 45 s
    Bit rate mode                            : Constant
    Bit rate                                 : 640 kb/s
    Channel(s)                               : 6 channels
    Channel layout                           : L R C LFE Ls Rs
    Sampling rate                            : 48.0 kHz
    Frame rate                               : 31.250 FPS (1536 SPF)
    Bit depth                                : 32 bits
    Compression mode                         : Lossy
    Stream size                              : 219 MiB (16%)
    Title                                    : maďarština
    Language                                 : Hungarian
    Service kind                             : Complete Main
    Default                                  : No
    Forced                                   : No
    VENDOR_ID                                : [0][0][0][0]

    Audio #5
    ID                                       : 6
    Format                                   : E-AC-3
    Format/Info                              : Enhanced AC-3
    Commercial name                          : Dolby Digital Plus
    Codec ID                                 : A_EAC3
    Duration                                 : 47 min 45 s
    Bit rate mode                            : Constant
    Bit rate                                 : 640 kb/s
    Channel(s)                               : 6 channels
    Channel layout                           : L R C LFE Ls Rs
    Sampling rate                            : 48.0 kHz
    Frame rate                               : 31.250 FPS (1536 SPF)
    Bit depth                                : 32 bits
    Compression mode                         : Lossy
    Stream size                              : 219 MiB (16%)
    Title                                    : polština
    Language                                 : Polish
    Service kind                             : Complete Main
    Default                                  : No
    Forced                                   : No
    VENDOR_ID                                : [0][0][0][0]

    Text #1
    ID                                       : 7
    Format                                   : UTF-8
    Codec ID                                 : S_TEXT/UTF8
    Codec ID/Info                            : UTF-8 Plain Text
    Duration                                 : 45 min 39 s
    Title                                    : čeština
    Writing library                          : Lavc58.134.100 srt
    Language                                 : Czech
    Default                                  : Yes
    Forced                                   : No

    Text #2
    ID                                       : 8
    Format                                   : UTF-8
    Codec ID                                 : S_TEXT/UTF8
    Codec ID/Info                            : UTF-8 Plain Text
    Duration                                 : 45 min 39 s
    Title                                    : Czech [ForcedNarrative]
    Writing library                          : Lavc58.134.100 srt
    Language                                 : Czech
    Default                                  : No
    Forced                                   : No

    Text #3
    ID                                       : 9
    Format                                   : UTF-8
    Codec ID                                 : S_TEXT/UTF8
    Codec ID/Info                            : UTF-8 Plain Text
    Duration                                 : 45 min 39 s
    Title                                    : German [ForcedNarrative]
    Writing library                          : Lavc58.134.100 srt
    Language                                 : German
    Default                                  : No
    Forced                                   : No

    Text #4
    ID                                       : 10
    Format                                   : UTF-8
    Codec ID                                 : S_TEXT/UTF8
    Codec ID/Info                            : UTF-8 Plain Text
    Duration                                 : 45 min 39 s
    Title                                    : němčina
    Writing library                          : Lavc58.134.100 srt
    Language                                 : German
    Default                                  : No
    Forced                                   : No

    Text #5
    ID                                       : 11
    Format                                   : UTF-8
    Codec ID                                 : S_TEXT/UTF8
    Codec ID/Info                            : UTF-8 Plain Text
    Duration                                 : 43 min 46 s
    Title                                    : angličtina [CC]
    Writing library                          : Lavc58.134.100 srt
    Language                                 : English
    Default                                  : No
    Forced                                   : No

    Text #6
    ID                                       : 12
    Format                                   : UTF-8
    Codec ID                                 : S_TEXT/UTF8
    Codec ID/Info                            : UTF-8 Plain Text
    Duration                                 : 45 min 40 s
    Title                                    : Hungarian [ForcedNarrative]
    Writing library                          : Lavc58.134.100 srt
    Language                                 : Hungarian
    Default                                  : No
    Forced                                   : No

    Text #7
    ID                                       : 13
    Format                                   : UTF-8
    Codec ID                                 : S_TEXT/UTF8
    Codec ID/Info                            : UTF-8 Plain Text
    Duration                                 : 45 min 40 s
    Title                                    : maďarština
    Writing library                          : Lavc58.134.100 srt
    Language                                 : Hungarian
    Default                                  : No
    Forced                                   : No

    Text #8
    ID                                       : 14
    Format                                   : UTF-8
    Codec ID                                 : S_TEXT/UTF8
    Codec ID/Info                            : UTF-8 Plain Text
    Duration                                 : 45 min 40 s
    Title                                    : Polish [ForcedNarrative]
    Writing library                          : Lavc58.134.100 srt
    Language                                 : Polish
    Default                                  : No
    Forced                                   : No

    Text #9
    ID                                       : 15
    Format                                   : UTF-8
    Codec ID                                 : S_TEXT/UTF8
    Codec ID/Info                            : UTF-8 Plain Text
    Duration                                 : 45 min 40 s
    Title                                    : polština
    Writing library                          : Lavc58.134.100 srt
    Language                                 : Polish
    Default                                  : No
    Forced                                   : No

    Text #10
    ID                                       : 16
    Format                                   : UTF-8
    Codec ID                                 : S_TEXT/UTF8
    Codec ID/Info                            : UTF-8 Plain Text
    Duration                                 : 45 min 40 s
    Title                                    : Ukrainian [ForcedNarrative]
    Writing library                          : Lavc58.134.100 srt
    Language                                 : Ukrainian
    Default                                  : No
    Forced                                   : No

    Text #11
    ID                                       : 17
    Format                                   : UTF-8
    Codec ID                                 : S_TEXT/UTF8
    Codec ID/Info                            : UTF-8 Plain Text
    Duration                                 : 45 min 40 s
    Title                                    : ukrajinština
    Writing library                          : Lavc58.134.100 srt
    Language                                 : Ukrainian
    Default                                  : No
    Forced                                   : No









    Miira, Divy, llebo4, heker510, fisi323,

    + Pridaj vlastnu verziu tohto torrentu +


    Upozornenie:
    Ziadny zo zobrazených súborov sa nenachádza na tomto serveri. Server slúzi len k síreniu vlastnorucne vytvorených aplikácií, videí, hudby ai. Autori stránok nenesú ziadnu zodpovednost za zverejnené odkazy, komentáre a obsah súborov. Vsetky komentáre, odkazy, súbory ktoré by svojou povahou mohli byt v rozpore zo zákonmi sem vkladáte na vlastnú zodpovednost. Autori stránok si vyhradzujú právo cenzúry odkazov, komentárov príp. súborov, ktoré by svojou povahou mohli byt v rozpore zo zákonmi a dobrými mravmi. Dodrzujte pravidlá!





    1
    gurp
    Ratio 2.57

    Member+

    25/01/2023 16.48.47
    I přes nízké ohodnocení na ČSFD, mi ten seriál tak špatný nepřipadal ,trochu mě štve že druhá série nebude.Mě osobně se líbil ,solidní průměr,ale asi jsem moc starý na to abych poznal kvalitu


    --------------
    >> 25/01/2023 17.33.30
    UPLOADER: u mne tez fajn seros.. jsem fanda


    Back

    Na serveru se nenalézají zádne soubory. Za odkazy jsou výhradně zodpovědní uzivatelé a návstěvníci tohoto trackeru. Administrátor není zodpovědný za pridaný obsah ani za skody zpusobené uzivateli. Nesmíte pouzívat tuto webovou stránku pro distribuovaní nebo download zádného materiálu pokud nemáte povolení od príslusného vlastníka práv. Uzivatelé jsou zodpovědní za dodrzování těchto pravidel a podmínek. Owner má právo kdykoliv změnit pravidla tohoto trackeru.

    [ Script trval: 0.087 sec. ] - [ GZIP: enabled ]
    Je zhruba 11:39
    memcache

    TOPlist