Tvoj účet nieje VIP.
Preto sú tvoje funkcie a možnosti značne obmedzené.
Pre aktiváciu VIP klikni sem.

Kabat - Dole v dole DVD 2004 (Full koncert live) = CSFD 85% | SkTorrent.eu

Cz-SkTorrent open Tracker, na volné zdieľanie súborov. Pridajte sa k našej komunite a získajte prístup k tisícom torrentov.

  • vysoká rýchlosť
  • úplne zdarma
  • prevažne Slovenská a Česká scéna
  • ste tu s nami už 10 rokov - Ďakujeme
  • Vitaj Guest (Login) Ako stahovat
    torrenty?
    Torrenty:
    v1 textová
    v2 obrázková
    Ako sa stat
    Uploaderom
    Online
    Filmy
    Forum
    Pravidlá
    SkTSocial
    BitTorrent
    klient
    Meno: Heslo:
    Zaregistrovat
    Po zaregistrovaní mozte volne stahovat
    Zabudol som heslo

    Kabat - Dole v dole DVD 2004 (Full koncert live) = CSFD 85% Názov:Kabat - Dole v dole DVD 2004 (Full koncert live) = CSFD 85% Hodnocení:N/A Stiahnut
    Pozriet Online
    Kategória:Hudební videa - cz Velikost:4.3 GB BitTorrent klient
    Pridaný: Súbory:
    Skontrolován:2022-11-27 Peerov:5 (Seed: 3, Leech: 2)
    Zaner:Dokumentarny,Hudebni Uploader:Uvidis, az ked budes
    VIP
    Kúp nám Pivo 1,10€

    Kúp nám Pivo

    Pridaj do zalozky
    Pridaj do zalozky




    Interpret: Kabát
    Název: Dole v dole DVD 2004 (Full koncert live)
    Rok vydání: ČR, 2005
    CSFD: https://www.csfd.cz/film/258468-kabat-2003-2004/prehled/
    Zvuk: MI
    Jazyk: MI
    Žánr: Rock
    Obsazení: Režie: David Beránek
    Kamera: Vít Bělohradský, David Beránek
    Hrají: Josef Vojtek, Milan Špalek, Ota Váňa, Tomáš Krulich, Radek Hurčík

    Media info:
    Hlavní
    Unique ID                                : 198578996254015176563035068012414908156 (0x9564EC6BE299A96AA24D4FFDB4E436FC)
    Celý název a cesta                       : C:\Users\Desktop\Kabát - Dole v dole DVD 2004 (Full koncert live).mkv
    Formát                                   : Matroska
    Format version                           : Version 2
    Velikost souboru                         : 4,29 GiB
    Duration                                 : 1 h 30 min
    Celkový BitRate                          : 6 762 kb/s
    Název filmu                              : Dole v dole 2004
    Encoded date                             : UTC 2022-10-31 18:04:32
    Použitý software                         : DVDFab 9.1.9.5
    Enkódoval                                : libebml v0.7.8 + libmatroska v0.8.1

    Video
    ID                                       : 1
    Formát                                   : AVC
    Formát/Info                              : Advanced Video Codec
    Format profile                           : High@L4.1
    Format settings                          : CABAC / 2 Ref Frames
    Format settings, CABAC                   : Ano
    Format settings, Reference frames        : 2 frames
    Format settings, GOP                     : M=3, N=24
    Codec ID                                 : V_MPEG4/ISO/AVC
    Duration                                 : 1 h 30 min
    Bit rate                                 : 5 415 kb/s
    Šířka                                    : 752pixely
    Výška                                    : 576pixely
    Poměr stran                              : 4:3
    Frame rate mode                          : Constant
    Frame rate                               : 25,000 FPS
    Color space                              : YUV
    Chroma subsampling                       : 4:2:0
    Bit depth                                : 8 bits
    Scan type                                : Progressive
    Bits/(Pixel*Frame)                       : 0.500
    Stream size                              : 3,35 GiB (78%)
    Enkódoval                                : x264 core 142
    Nastavení enkoderu                       : cabac=1 / ref=1 / deblock=1:-1:-1 / analyse=0x3:0 / me=hex / subme=5 / psy=0 / mixed_ref=0 / me_range=16 / chroma_me=1 / trellis=0 / 8x8dct=1 / cqm=0 / deadzone=21,11 / fast_pskip=1 / chroma_qp_offset=0 / threads=4 / lookahead_threads=1 / sliced_threads=0 / nr=0 / decimate=1 / interlaced=0 / bluray_compat=0 / constrained_intra=0 / bframes=2 / b_pyramid=0 / b_adapt=1 / b_bias=0 / direct=1 / weightb=1 / open_gop=0 / weightp=0 / keyint=24 / keyint_min=13 / scenecut=40 / intra_refresh=0 / rc=2pass / mbtree=0 / bitrate=5415 / ratetol=1.0 / qcomp=0.60 / qpmin=0 / qpmax=69 / qpstep=4 / cplxblur=20.0 / qblur=0.5 / ip_ratio=1.40 / pb_ratio=1.30 / aq=1:1.00
    Default                                  : Ano
    Forced                                   : Ne
    Color range                              : Limited
    Color primaries                          : BT.601 NTSC
    Transfer characteristics                 : BT.709
    Matrix coefficients                      : BT.601

    Audio #1
    ID                                       : 2
    Formát                                   : AC-3
    Formát/Info                              : Audio Coding 3
    Commercial name                          : Dolby Digital
    Codec ID                                 : A_AC3
    Duration                                 : 1 h 30 min
    Bit rate mode                            : Constant
    Bit rate                                 : 448 kb/s
    Kanál(y)                                 : 6 kanály
    Channel layout                           : L R C LFE Ls Rs
    Sampling rate                            : 48,0 kHz
    Frame rate                               : 31,250 FPS (1536 SPF)
    Compression mode                         : Lossy
    Stream size                              : 291 MiB (7%)
    Jazyk                                    : Czech
    Service kind                             : Complete Main
    Default                                  : Ano
    Forced                                   : Ne

    Audio #2
    ID                                       : 3
    Formát                                   : AC-3
    Formát/Info                              : Audio Coding 3
    Commercial name                          : Dolby Digital
    Codec ID                                 : A_AC3
    Duration                                 : 1 h 30 min
    Bit rate mode                            : Constant
    Bit rate                                 : 448 kb/s
    Kanál(y)                                 : 6 kanály
    Channel layout                           : L R C LFE Ls Rs
    Sampling rate                            : 48,0 kHz
    Frame rate                               : 31,250 FPS (1536 SPF)
    Compression mode                         : Lossy
    Stream size                              : 291 MiB (7%)
    Jazyk                                    : Czech
    Service kind                             : Complete Main
    Default                                  : Ne
    Forced                                   : Ne

    Audio #3
    ID                                       : 4
    Formát                                   : AC-3
    Formát/Info                              : Audio Coding 3
    Commercial name                          : Dolby Digital
    Codec ID                                 : A_AC3
    Duration                                 : 1 h 30 min
    Bit rate mode                            : Constant
    Bit rate                                 : 448 kb/s
    Kanál(y)                                 : 2 kanály
    Channel layout                           : L R
    Sampling rate                            : 48,0 kHz
    Frame rate                               : 31,250 FPS (1536 SPF)
    Compression mode                         : Lossy
    Stream size                              : 291 MiB (7%)
    Jazyk                                    : Czech
    Service kind                             : Complete Main
    Default                                  : Ne
    Forced                                   : Ne

    Menu
    00:00:00.000                             : en01)00:00:00:000
    00:02:12.080                             : en02)00:02:12:080
    00:05:09.400                             : en03)00:05:09:400
    00:07:56.320                             : en04)00:07:56:320
    00:11:53.960                             : en05)00:11:53:960
    00:14:41.400                             : en06)00:14:41:400
    00:16:48.800                             : en07)00:16:48:800
    00:20:10.040                             : en08)00:20:10:040
    00:22:33.560                             : en09)00:22:33:560
    00:26:07.800                             : en10)00:26:07:800
    00:29:26.440                             : en11)00:29:26:440
    00:32:26.360                             : en12)00:32:26:360
    00:36:04.760                             : en13)00:36:04:760
    00:39:13.520                             : en14)00:39:13:520
    00:43:37.680                             : en15)00:43:37:680
    00:47:04.120                             : en16)00:47:04:120
    00:51:33.480                             : en17)00:51:33:480
    00:53:41.400                             : en18)00:53:41:400
    00:58:15.440                             : en19)00:58:15:440
    01:01:03.920                             : en20)01:01:03:920
    01:03:46.160                             : en21)01:03:46:160
    01:06:39.320                             : en22)01:06:39:320
    01:09:28.320                             : en23)01:09:28:320
    01:13:46.240                             : en24)01:13:46:240
    01:16:45.640                             : en25)01:16:45:640
    01:20:41.200                             : en26)01:20:41:200
    01:23:59.320                             : en27)01:23:59:320

    Playlist:
    Bahno
    V pekle sudy válej
    (Bruce Willis - )
    Cirkusovej stan
    Bum Bum Tequila
    Kalamity Jane
    Jednou nás to zabije
    Dávám ti jeden den
    Stará Lou
    Lady Lane
    Elvis
    Shořel náš dům
    Šaman
    Go Satane Go
    Starej bar
    Frau Vogelrauch
    Pohoda
    Teta
    Colorado
    Kdo si nechce hubu spálit
    Porcelánový prasata
    Žízeň
    Dole v dole
    Na sever
    Láďa
    Moderní děvče

    Obsah:
    Poděkování skupiny všem jejím fanouškům za úžasný rok, který jí a celému týmu lidí kolem připravili, a možnost zakoupit si tento výjimečný rok na památku alespoň ve zvukové a obrazové podobě. Na 1. nosiči je zaznamenán koncert z podzimního Turné 2003 a dokument o turné Dole v dole 2004 a na 2. nosiči téměř celý koncert z turné Dole v dole 2004.

    Jedná se o RIP z originálního DVD. Ještě mam Corrida, Banditi di Praga a Po čertech velkej koncert 2009 a 2014. Mam i další videa, ale jen tyto uvedený jsou originál.










    + Pridaj vlastnu verziu tohto torrentu +


    Upozornenie:
    Ziadny zo zobrazených súborov sa nenachádza na tomto serveri. Server slúzi len k síreniu vlastnorucne vytvorených aplikácií, videí, hudby ai. Autori stránok nenesú ziadnu zodpovednost za zverejnené odkazy, komentáre a obsah súborov. Vsetky komentáre, odkazy, súbory ktoré by svojou povahou mohli byt v rozpore zo zákonmi sem vkladáte na vlastnú zodpovednost. Autori stránok si vyhradzujú právo cenzúry odkazov, komentárov príp. súborov, ktoré by svojou povahou mohli byt v rozpore zo zákonmi a dobrými mravmi. Dodrzujte pravidlá!


    No comments...


    Back

    Na serveru se nenalézají zádne soubory. Za odkazy jsou výhradně zodpovědní uzivatelé a návstěvníci tohoto trackeru. Administrátor není zodpovědný za pridaný obsah ani za skody zpusobené uzivateli. Nesmíte pouzívat tuto webovou stránku pro distribuovaní nebo download zádného materiálu pokud nemáte povolení od príslusného vlastníka práv. Uzivatelé jsou zodpovědní za dodrzování těchto pravidel a podmínek. Owner má právo kdykoliv změnit pravidla tohoto trackeru.

    [ Script trval: 0.071 sec. ] - [ GZIP: enabled ]
    Je zhruba 19:32
    memcache

    TOPlist