Tvoj účet nieje VIP.
Preto sú tvoje funkcie a možnosti značne obmedzené.
Pre aktiváciu VIP klikni sem.

Kabinet kuriozit Guillerma Del Tora / Guillermo del Toro's Cabinet of Curiosities (S01)(1080p)(AVC)(WebDl)(CZ+Multi 5 lang)(MultiSUB) = CSFD 65% | SkTorrent.eu

Cz-SkTorrent open Tracker, na volné zdielanie súborov. Pridajte sa k nasej komunite a získajte pristup k tisícom torrentov.

  • vysoká rýchlost
  • úplne zdarma
  • prevazne Slovenska a Ceska scena
  • ste tu s nami uz 5 rokov - Dakujeme
  • Vitaj Guest (Login) Ako stahovat
    torrenty?
    Torrenty:
    v1 textová
    v2 obrázková
    Ako sa stat
    Uploaderom
    Online
    Filmy
    Forum
    Pravidlá
    BitTorrent
    klient
    Meno: Heslo:
    Zaregistrovat
    Po zaregistrovaní mozte volne stahovat
    Zabudol som heslo

    Kabinet kuriozit Guillerma Del Tora / Guillermo del Toro's Cabinet of Curiosities (S01)(1080p)(AVC)(WebDl)(CZ+Multi 5 lang)(MultiSUB) = CSFD 65% Názov:Kabinet kuriozit Guillerma Del Tora / Guillermo del Toro's Cabinet of Curiosities (S01)(1080p)(AVC)(WebDl)(CZ+Multi 5 lang)(MultiSUB) = CSFD 65% Hodnocení:N/A Stiahnut
    Pozriet Online
    Kategória:Seriál Velikost:7.4 GB BitTorrent klient
    Pridaný: Súbory:
    Skontrolován:2022-11-16 Peerov:30 (Seed: 28, Leech: 2)
    Zaner:Drama,Horor,Mysteriozni,Thriller Uploader:Uvidis, az ked budes
    VIP
    Kúp nám Pivo 1,10€

    Kúp nám Pivo
    Pridaj do zalozky
    Pridaj do zalozky





    [center]






    Movie Name: Guillermo del Toro's Cabinet of Curiosities (S01)(2022)(Complete)
    IMDb Rating: 7.2/10

    Quality: 1080p (WebDL)
    Language: AAC 2.0 - English , German , Hungarian , Polish , Czech
    Subtitles: Multi
    Director: Ana Lily Amirpour, Panos Cosmatos, Catherine Hardwicke, Jennifer Kent, Vincenzo Natali, Guillermo Navarro, David Prior, Keith Thomas
    Writers: Guillermo del Toro
    Genres: Horror | Drama | Mistery |


    Bizarre nightmares unfold in eight tales of terror in a visually stunning, spine-tingling horror collection curated by Guillermo del Toro.





    [/center]
    Format                                   : MPEG-4
    Format profile                           : Base Media
    Codec ID                                 : isom (isom/iso2/avc1/mp41)
    File size                                : 769 MiB
    Duration                                 : 46 min 18 s
    Overall bit rate mode                    : Variable
    Overall bit rate                         : 2 321 kb/s
    Collection                               : Kabinet kuriozit Guillerma del Tora
    Season                                   : 1
    Track name                               : Položka 36
    Description                              : Zadlužený muž si pořídí sklepní kóji plnou záhadných věcí, které chce prodat. Brzy ale zjistí, že se kvůli tomu ocitl ve smrtelně nebezpečné a zoufalé situaci.
    Writing application                      : Lavf58.76.100
    Cover                                    : Yes
    Part_ID                                  : 1

    Video
    ID                                       : 1
    Format                                   : AVC
    Format/Info                              : Advanced Video Codec
    Format profile                           : High@L4
    Format settings                          : CABAC / 4 Ref Frames
    Format settings, CABAC                   : Yes
    Format settings, Reference frames        : 4 frames
    Codec ID                                 : avc1
    Codec ID/Info                            : Advanced Video Coding
    Duration                                 : 46 min 18 s
    Bit rate mode                            : Variable
    Bit rate                                 : 1 670 kb/s
    Maximum bit rate                         : 20.0 Mb/s
    Width                                    : 1 920 pixels
    Height                                   : 1 080 pixels
    Display aspect ratio                     : 16:9
    Frame rate mode                          : Constant
    Frame rate                               : 24.000 FPS
    Color space                              : YUV
    Chroma subsampling                       : 4:2:0
    Bit depth                                : 8 bits
    Scan type                                : Progressive
    Bits/(Pixel*Frame)                       : 0.034
    Stream size                              : 553 MiB (72%)
    Title                                    : 264:fmt=264:moovts=-1:fps=24:deps:par=auto@GPAC2.1-DEV-rev6244-g8335b99ea-HEAD
    Writing library                          : x264 core 148 r2727 7d026e8
    Encoding settings                        : cabac=1 / ref=4 / deblock=1:0:0 / analyse=0x3:0x111 / me=umh / subme=10 / psy=1 / psy_rd=1.00:0.00 / mixed_ref=1 / me_range=120 / chroma_me=1 / trellis=2 / 8x8dct=1 / cqm=0 / deadzone=21,11 / fast_pskip=1 / chroma_qp_offset=-2 / threads=8 / lookahead_threads=2 / sliced_threads=0 / nr=0 / decimate=1 / interlaced=0 / bluray_compat=0 / stitchable=1 / constrained_intra=0 / bframes=16 / b_pyramid=2 / b_adapt=2 / b_bias=0 / direct=3 / weightb=1 / open_gop=0 / weightp=2 / keyint=240 / keyint_min=121 / scenecut=0 / intra_refresh=0 / rc_lookahead=240 / rc=crf / mbtree=1 / crf=21.0 / qcomp=0.50 / qpmin=6 / qpmax=51 / qpstep=4 / vbv_maxrate=20000 / vbv_bufsize=25000 / crf_max=0.0 / nal_hrd=vbr / filler=0 / ip_ratio=1.40 / aq=1:0.80
    Codec configuration box                  : avcC

    Audio #1
    ID                                       : 3
    Format                                   : AAC LC SBR
    Format/Info                              : Advanced Audio Codec Low Complexity with Spectral Band Replication
    Commercial name                          : HE-AAC
    Format settings                          : Explicit
    Codec ID                                 : mp4a-40-2
    Duration                                 : 46 min 18 s
    Bit rate mode                            : Constant
    Bit rate                                 : 128 kb/s
    Channel(s)                               : 2 channels
    Channel layout                           : L R
    Sampling rate                            : 48.0 kHz
    Frame rate                               : 23.438 FPS (2048 SPF)
    Compression mode                         : Lossy
    Stream size                              : 42.4 MiB (6%)
    Title                                    : čeština
    Language                                 : Czech
    Default                                  : Yes
    Alternate group                          : 2

    Audio #2
    ID                                       : 4
    Format                                   : AAC LC SBR
    Format/Info                              : Advanced Audio Codec Low Complexity with Spectral Band Replication
    Commercial name                          : HE-AAC
    Format settings                          : Explicit
    Codec ID                                 : mp4a-40-2
    Duration                                 : 46 min 18 s
    Bit rate mode                            : Constant
    Bit rate                                 : 128 kb/s
    Channel(s)                               : 2 channels
    Channel layout                           : L R
    Sampling rate                            : 48.0 kHz
    Frame rate                               : 23.438 FPS (2048 SPF)
    Compression mode                         : Lossy
    Stream size                              : 42.4 MiB (6%)
    Title                                    : němčina
    Language                                 : German
    Default                                  : No
    Alternate group                          : 3

    Audio #3
    ID                                       : 5
    Format                                   : AAC LC SBR
    Format/Info                              : Advanced Audio Codec Low Complexity with Spectral Band Replication
    Commercial name                          : HE-AAC
    Format settings                          : Explicit
    Codec ID                                 : mp4a-40-2
    Duration                                 : 46 min 18 s
    Bit rate mode                            : Constant
    Bit rate                                 : 128 kb/s
    Channel(s)                               : 2 channels
    Channel layout                           : L R
    Sampling rate                            : 48.0 kHz
    Frame rate                               : 23.438 FPS (2048 SPF)
    Compression mode                         : Lossy
    Stream size                              : 42.4 MiB (6%)
    Title                                    : angličtina [Originál]
    Language                                 : English
    Default                                  : Yes
    Alternate group                          : 4

    Audio #4
    ID                                       : 6
    Format                                   : AAC LC SBR
    Format/Info                              : Advanced Audio Codec Low Complexity with Spectral Band Replication
    Commercial name                          : HE-AAC
    Format settings                          : Explicit
    Codec ID                                 : mp4a-40-2
    Duration                                 : 46 min 18 s
    Bit rate mode                            : Constant
    Bit rate                                 : 128 kb/s
    Channel(s)                               : 2 channels
    Channel layout                           : L R
    Sampling rate                            : 48.0 kHz
    Frame rate                               : 23.438 FPS (2048 SPF)
    Compression mode                         : Lossy
    Stream size                              : 42.4 MiB (6%)
    Title                                    : maďarština
    Language                                 : Hungarian
    Default                                  : Yes
    Alternate group                          : 5

    Audio #5
    ID                                       : 7
    Format                                   : AAC LC SBR
    Format/Info                              : Advanced Audio Codec Low Complexity with Spectral Band Replication
    Commercial name                          : HE-AAC
    Format settings                          : Explicit
    Codec ID                                 : mp4a-40-2
    Duration                                 : 46 min 18 s
    Bit rate mode                            : Constant
    Bit rate                                 : 128 kb/s
    Channel(s)                               : 2 channels
    Channel layout                           : L R
    Sampling rate                            : 48.0 kHz
    Frame rate                               : 23.438 FPS (2048 SPF)
    Compression mode                         : Lossy
    Stream size                              : 42.4 MiB (6%)
    Title                                    : polština
    Language                                 : Polish
    Default                                  : Yes
    Alternate group                          : 6

    Text #1
    ID                                       : 8
    Format                                   : Timed Text
    Muxing mode                              : sbtl
    Codec ID                                 : tx3g
    Duration                                 : 44 min 48 s
    Bit rate mode                            : Variable
    Bit rate                                 : 59 b/s
    Stream size                              : 19.2 KiB (0%)
    Title                                    : čeština
    Language                                 : Czech
    Default                                  : No
    Forced                                   : No
    Alternate group                          : 7

    Text #2
    ID                                       : 9
    Format                                   : Timed Text
    Muxing mode                              : sbtl
    Codec ID                                 : tx3g
    Duration                                 : 44 min 48 s
    Bit rate mode                            : Variable
    Bit rate                                 : 1 b/s
    Stream size                              : 456 Bytes (0%)
    Title                                    : Czech [ForcedNarrative]
    Language                                 : Czech
    Default                                  : Yes
    Forced                                   : No
    Alternate group                          : 8

    Text #3
    ID                                       : 10
    Format                                   : Timed Text
    Muxing mode                              : sbtl
    Codec ID                                 : tx3g
    Duration                                 : 44 min 48 s
    Bit rate mode                            : Variable
    Bit rate                                 : 63 b/s
    Stream size                              : 20.6 KiB (0%)
    Title                                    : němčina
    Language                                 : German
    Default                                  : No
    Forced                                   : No
    Alternate group                          : 9

    Text #4
    ID                                       : 11
    Format                                   : Timed Text
    Muxing mode                              : sbtl
    Codec ID                                 : tx3g
    Duration                                 : 44 min 48 s
    Bit rate mode                            : Variable
    Bit rate                                 : 9 b/s
    Stream size                              : 2.92 KiB (0%)
    Title                                    : German [ForcedNarrative]
    Language                                 : German
    Default                                  : No
    Forced                                   : No
    Alternate group                          : 10

    Text #5
    ID                                       : 12
    Format                                   : Timed Text
    Muxing mode                              : sbtl
    Codec ID                                 : tx3g
    Duration                                 : 39 min 6 s
    Bit rate mode                            : Variable
    Bit rate                                 : 1 b/s
    Stream size                              : 221 Bytes (0%)
    Title                                    : English [ForcedNarrative]
    Language                                 : English
    Default                                  : No
    Forced                                   : No
    Alternate group                          : 11

    Text #6
    ID                                       : 13
    Format                                   : Timed Text
    Muxing mode                              : sbtl
    Codec ID                                 : tx3g
    Duration                                 : 44 min 51 s
    Bit rate mode                            : Variable
    Bit rate                                 : 76 b/s
    Stream size                              : 24.9 KiB (0%)
    Title                                    : angličtina [CC]
    Language                                 : English
    Default                                  : No
    Forced                                   : No
    Alternate group                          : 12

    Text #7
    ID                                       : 14
    Format                                   : Timed Text
    Muxing mode                              : sbtl
    Codec ID                                 : tx3g
    Duration                                 : 44 min 48 s
    Bit rate mode                            : Variable
    Bit rate                                 : 61 b/s
    Stream size                              : 20.1 KiB (0%)
    Title                                    : maďarština
    Language                                 : Hungarian
    Default                                  : No
    Forced                                   : No
    Alternate group                          : 13

    Text #8
    ID                                       : 15
    Format                                   : Timed Text
    Muxing mode                              : sbtl
    Codec ID                                 : tx3g
    Duration                                 : 44 min 48 s
    Bit rate mode                            : Variable
    Bit rate                                 : 1 b/s
    Stream size                              : 498 Bytes (0%)
    Title                                    : Hungarian [ForcedNarrative]
    Language                                 : Hungarian
    Default                                  : No
    Forced                                   : No
    Alternate group                          : 14

    Text #9
    ID                                       : 16
    Format                                   : Timed Text
    Muxing mode                              : sbtl
    Codec ID                                 : tx3g
    Duration                                 : 44 min 48 s
    Bit rate mode                            : Variable
    Bit rate                                 : 1 b/s
    Stream size                              : 412 Bytes (0%)
    Title                                    : Polish [ForcedNarrative]
    Language                                 : Polish
    Default                                  : No
    Forced                                   : No
    Alternate group                          : 15

    Text #10
    ID                                       : 17
    Format                                   : Timed Text
    Muxing mode                              : sbtl
    Codec ID                                 : tx3g
    Duration                                 : 44 min 48 s
    Bit rate mode                            : Variable
    Bit rate                                 : 56 b/s
    Stream size                              : 18.5 KiB (0%)
    Title                                    : polština
    Language                                 : Polish
    Default                                  : No
    Forced                                   : No
    Alternate group                          : 16

    Text #11
    ID                                       : 18
    Format                                   : Timed Text
    Muxing mode                              : sbtl
    Codec ID                                 : tx3g
    Duration                                 : 43 min 54 s
    Bit rate mode                            : Variable
    Bit rate                                 : 91 b/s
    Stream size                              : 29.2 KiB (0%)
    Title                                    : ukrajinština
    Language                                 : Ukrainian
    Default                                  : No
    Forced                                   : No
    Alternate group                          : 17










    pohee, Miira, mirkosirko, vojta229,

    + Pridaj vlastnu verziu tohto torrentu +


    Upozornenie:
    Ziadny zo zobrazených súborov sa nenachádza na tomto serveri. Server slúzi len k síreniu vlastnorucne vytvorených aplikácií, videí, hudby ai. Autori stránok nenesú ziadnu zodpovednost za zverejnené odkazy, komentáre a obsah súborov. Vsetky komentáre, odkazy, súbory ktoré by svojou povahou mohli byt v rozpore zo zákonmi sem vkladáte na vlastnú zodpovednost. Autori stránok si vyhradzujú právo cenzúry odkazov, komentárov príp. súborov, ktoré by svojou povahou mohli byt v rozpore zo zákonmi a dobrými mravmi. Dodrzujte pravidlá!


    No comments...


    Back

    Na serveru se nenalézají zádne soubory. Za odkazy jsou výhradně zodpovědní uzivatelé a návstěvníci tohoto trackeru. Administrátor není zodpovědný za pridaný obsah ani za skody zpusobené uzivateli. Nesmíte pouzívat tuto webovou stránku pro distribuovaní nebo download zádného materiálu pokud nemáte povolení od príslusného vlastníka práv. Uzivatelé jsou zodpovědní za dodrzování těchto pravidel a podmínek. Owner má právo kdykoliv změnit pravidla tohoto trackeru.

    [ Script trval: 0.026 sec. ] - [ GZIP: enabled ]
    Je zhruba 19:53
    memcache

    TOPlist