Tvoj účet nieje VIP.
Preto sú tvoje funkcie a možnosti značne obmedzené.
Pre aktiváciu VIP klikni sem.

Kancl / The Office (S01-S09)(2005–2013)(CZ/EN dab)(CZ/SK/EN sub)(1080p)(WEB-DL) = CSFD 84% | SkTorrent.eu

Cz-SkTorrent open Tracker, na volné zdieľanie súborov. Pridajte sa k našej komunite a získajte prístup k tisícom torrentov.

  • vysoká rýchlosť
  • úplne zdarma
  • prevažne Slovenská a Česká scéna
  • ste tu s nami už 10 rokov - Ďakujeme
  • Vitaj Guest (Login) Ako stahovat
    torrenty?
    Torrenty:
    v1 textová
    v2 obrázková
    Ako sa stat
    Uploaderom
    Online
    Filmy
    Forum
    Pravidlá
    SkTSocial
    BitTorrent
    klient
    Meno: Heslo:
    Zaregistrovat
    Po zaregistrovaní mozte volne stahovat
    Zabudol som heslo

    Kancl / The Office (S01-S09)(2005–2013)(CZ/EN dab)(CZ/SK/EN sub)(1080p)(WEB-DL) = CSFD 84% Názov:Kancl / The Office (S01-S09)(2005–2013)(CZ/EN dab)(CZ/SK/EN sub)(1080p)(WEB-DL) = CSFD 84% Hodnocení:N/A Stiahnut
    Pozriet Online
    Kategória:Seriál - Velikost:252.8 GB BitTorrent klient
    Pridaný: Súbory:
    Skontrolován:2024-07-09 Peerov:33 (Seed: 23, Leech: 10)
    Zaner:Komedie Uploader:Uvidis, az ked budes
    VIP
    Kúp nám Pivo 1,10€

    Kúp nám Pivo

    Pridaj do zalozky
    Pridaj do zalozky








    Jazyk : CZ/EN
    Titulky : CZ/SK/EN

    Komedie
    USA, (2005–2013), 75 h 18 min (Minutáž: 21–51 min)




    Tvůrci: Greg Daniels, Ricky Gervais, Stephen Merchant

    Režie: Ken Whittingham, Tucker Gates, Jason Reitman, Joss Whedon (více)

    Scénář: Greg Daniels, Mindy Kaling, Charlie Grandy, Steve Carell, Dan Greaney

    Kamera: Peter Smokler, Randall Einhorn, Matt Sohn

    Hrají: Steve Carell, Rainn Wilson, John Krasinski, Jenna Fischer, Leslie David Baker, Brian Baumgartner, Angela Kinsey, Phyllis Smith, Kate Flannery, Creed Bratton

    Produkce: Michael Schur, Ken Kwapis, Mindy Kaling, Steve Carell, Randy Cordray, Christiane Ruff, Steve Burgess, Allison Silverman, Graham Wagner, Kent Zbornak

    Casting: Allison Jones, Jill Anthony Thomas

    Střih: Kathryn Himoff, Dean Holland, Gary Levy, Rob Burnett, David Rogers, Grady Cooper, Richie Edelson, Stuart Bass, Rick Weis, Claire Scanlon

    Zvuk: Bobby Mackston, Robert Carr, John W. Cook II, Bill Jackson, Kenneth Kobett, Peter Nusbaum, R. Russell Smith, William Freesh, Jim Fitzpatrick, Sherry Klein, Albert Ibbotson, Charles Hamilton

    Scénografie: Donald Lee Harris, Michael G. Gallenberg, Steve Rostine

    Masky: Edward French, Dionne Smith, Cyndra Dunn, Maria Valdivia, Laverne Caracuzzi, Arrick Anderson, Kim M. Ferry, Debbie Pierce, Kenneth Paul Schoenfeld, Debra-Lee Davidson, Roxxi Dott, Angelika John, Lisa Nash-Jones, Ketty Gonzalez, Shari Perry

    Kostýmy: Alysia Raycraft, Carey Bennett

    Obsah:

    Famózní komediální seriál o každodenním soužití nespokojených zaměstnanců v kanceláři společnosti Dunder Mifflin, které šéfuje zmatený Michael Scott. (Netflix)



    Format                      : Matroska
    Format version              : Version 4
    File size                   : 1.29 GiB
    Duration                    : 23 min 6 s
    Overall bit rate mode       : Variable
    Overall bit rate            : 8 007 kb/s
    Movie name                  : Pilot
    Encoded date                : UTC 2023-09-10 07:01:44
    Writing application         : mkvmerge v68.0.0 ('The Curtain') 64-bit
    Writing library             : libebml v1.4.2 + libmatroska v1.6.4

    Video
    ID                          : 1
    Format                      : AVC
    Format/Info                 : Advanced Video Codec
    Format profile              : High@L4
    Format settings             : CABAC / 4 Ref Frames
    Format settings, CABAC      : Yes
    Format settings, Reference  : 4 frames
    Codec ID                    : V_MPEG4/ISO/AVC
    Duration                    : 23 min 6 s
    Bit rate mode               : Variable
    Bit rate                    : 7 830 kb/s
    Maximum bit rate            : 11.7 Mb/s
    Width                       : 1 920 pixels
    Height                      : 1 080 pixels
    Display aspect ratio        : 16:9
    Frame rate mode             : Constant
    Frame rate                  : 23.976 (24000/1001) FPS
    Color space                 : YUV
    Chroma subsampling          : 4:2:0
    Bit depth                   : 8 bits
    Scan type                   : Progressive
    Bits/(Pixel*Frame)          : 0.157
    Stream size                 : 1.26 GiB (98%)
    Writing library             : x264 core 164 r3095 baee400
    Encoding settings           : cabac=1 / ref=4 / deblock=1:0:0 / analyse=0x3:0x113 / me=umh / subme=9 / psy=1 / psy_rd=0.00:0.00 / mixed_ref=1 / me_range=32 / chroma_me=1 / trellis=2 / 8x8dct=1 / cqm=0 / deadzone=21,11 / fast_pskip=0 / chroma_qp_offset=0 / threads=34 / lookahead_threads=2 / sliced_threads=0 / nr=0 / decimate=1 / interlaced=0 / bluray_compat=0 / constrained_intra=0 / bframes=3 / b_pyramid=2 / b_adapt=1 / b_bias=0 / direct=1 / weightb=1 / open_gop=0 / weightp=2 / keyint=48 / keyint_min=25 / scenecut=0 / intra_refresh=0 / rc_lookahead=48 / rc=2pass / mbtree=1 / bitrate=7830 / ratetol=1.0 / qcomp=0.60 / qpmin=10 / qpmax=51 / qpstep=4 / cplxblur=20.0 / qblur=0.5 / vbv_maxrate=11745 / vbv_bufsize=11745 / nal_hrd=vbr / filler=0 / ip_ratio=1.41 / aq=1:1.00
    Default                     : Yes
    Forced                      : No
    Color range                 : Limited
    Color primaries             : BT.709
    Transfer characteristics    : BT.709
    Matrix coefficients         : BT.709

    Audio #1
    ID                          : 2
    Format                      : E-AC-3
    Format/Info                 : Enhanced AC-3
    Commercial name             : Dolby Digital Plus
    Format settings             : Dolby Surround
    Codec ID                    : A_EAC3
    Duration                    : 23 min 6 s
    Bit rate mode               : Constant
    Bit rate                    : 96.0 kb/s
    Channel(s)                  : 2 channels
    Channel layout              : L R
    Sampling rate               : 48.0 kHz
    Frame rate                  : 31.250 FPS (1536 SPF)
    Compression mode            : Lossy
    Stream size                 : 15.9 MiB (1%)
    Title                       : Czech
    Service kind                : Complete Main
    Default                     : No
    Forced                      : No

    Audio #2
    ID                          : 3
    Format                      : E-AC-3
    Format/Info                 : Enhanced AC-3
    Commercial name             : Dolby Digital Plus
    Format settings             : Dolby Surround
    Codec ID                    : A_EAC3
    Duration                    : 23 min 6 s
    Bit rate mode               : Constant
    Bit rate                    : 96.0 kb/s
    Channel(s)                  : 2 channels
    Channel layout              : L R
    Sampling rate               : 48.0 kHz
    Frame rate                  : 31.250 FPS (1536 SPF)
    Compression mode            : Lossy
    Stream size                 : 15.9 MiB (1%)
    Title                       : English
    Service kind                : Complete Main
    Default                     : No
    Forced                      : No

    Text #1
    ID                          : 4
    Format                      : UTF-8
    Codec ID                    : S_TEXT/UTF8
    Codec ID/Info               : UTF-8 Plain Text
    Duration                    : 23 min 1 s
    Bit rate                    : 77 b/s
    Frame rate                  : 0.351 FPS
    Count of elements           : 485
    Stream size                 : 13.1 KiB (0%)
    Title                       : Czech
    Default                     : Yes
    Forced                      : No

    Text #2
    ID                          : 5
    Format                      : UTF-8
    Codec ID                    : S_TEXT/UTF8
    Codec ID/Info               : UTF-8 Plain Text
    Duration                    : 22 min 3 s
    Bit rate                    : 127 b/s
    Frame rate                  : 0.436 FPS
    Count of elements           : 577
    Stream size                 : 20.6 KiB (0%)
    Title                       : English
    Default                     : Yes
    Forced                      : No

    Text #3
    ID                          : 6
    Format                      : UTF-8
    Codec ID                    : S_TEXT/UTF8
    Codec ID/Info               : UTF-8 Plain Text
    Duration                    : 22 min 53 s
    Bit rate                    : 79 b/s
    Frame rate                  : 0.293 FPS
    Count of elements           : 403
    Stream size                 : 13.3 KiB (0%)
    Title                       : Slovakian
    Default                     : Yes
    Forced                      : No













    doboska, sylvien013, vlken, radkarpat, pelines, Gorbynek, najytus, mikepr, JNS89, Jablonka,

    + Pridaj vlastnu verziu tohto torrentu +


    Upozornenie:
    Ziadny zo zobrazených súborov sa nenachádza na tomto serveri. Server slúzi len k síreniu vlastnorucne vytvorených aplikácií, videí, hudby ai. Autori stránok nenesú ziadnu zodpovednost za zverejnené odkazy, komentáre a obsah súborov. Vsetky komentáre, odkazy, súbory ktoré by svojou povahou mohli byt v rozpore zo zákonmi sem vkladáte na vlastnú zodpovednost. Autori stránok si vyhradzujú právo cenzúry odkazov, komentárov príp. súborov, ktoré by svojou povahou mohli byt v rozpore zo zákonmi a dobrými mravmi. Dodrzujte pravidlá!





    0
    vlken
    Ratio 1.65

    Member+

    10/07/2024 11.52.28
    moc díky, na tenhle tracker jsem čekal několik měsíců, pro 5+ sérii jsem nikde nemohl najít dabing a málokdy i FHD pro předchozí série

    snad potěší těch 10k bodů

    -3
    Sharky01
    Ratio 4.07

    Member+

    10/07/2024 07.19.09
    seed prosím,děkuji

    0
    kletor
    Ratio 23.36

    VIP

    09/07/2024 19.45.00
    zdar, do ktorej serie je cz dabing? 4?


    --------------
    >> 09/07/2024 20.26.12
    UPLOADER: Dabing je CZ a je obsažen ve všech sériích S01-09 i dílech , Titulky Full CZ/EN/SK a Forced Žádné.


    Back

    Na serveru se nenalézají zádne soubory. Za odkazy jsou výhradně zodpovědní uzivatelé a návstěvníci tohoto trackeru. Administrátor není zodpovědný za pridaný obsah ani za skody zpusobené uzivateli. Nesmíte pouzívat tuto webovou stránku pro distribuovaní nebo download zádného materiálu pokud nemáte povolení od príslusného vlastníka práv. Uzivatelé jsou zodpovědní za dodrzování těchto pravidel a podmínek. Owner má právo kdykoliv změnit pravidla tohoto trackeru.

    [ Script trval: 0.081 sec. ] - [ GZIP: enabled ]
    Je zhruba 00:11
    sql

    TOPlist