Tvoj účet nieje VIP.
Preto sú tvoje funkcie a možnosti značne obmedzené.
Pre aktiváciu VIP klikni sem.

Karate Kid 1-3 (1984-1986-1989)(CZ-EN)[1080p] = CSFD 65% | SkTorrent.eu

Cz-SkTorrent open Tracker, na volné zdielanie súborov. Pridajte sa k nasej komunite a získajte pristup k tisícom torrentov.

  • vysoká rýchlost
  • úplne zdarma
  • prevazne Slovenska a Ceska scena
  • ste tu s nami uz 5 rokov - Dakujeme
  • Vitaj Guest (Login) Ako stahovat
    torrenty?
    Torrenty:
    v1 textová
    v2 obrázková
    v3 online filmy
    Ako sa stat
    Uploaderom
    Online
    Filmy
    Forum
    Pravidlá
    BitTorrent
    klient
    Meno: Heslo:
    Zaregistrovat
    Po zaregistrovaní mozte volne stahovat
    Zabudol som heslo

    Torrent's details
    Karate Kid 1-3 (1984-1986-1989)(CZ-EN)[1080p] = CSFD 65% Názov:Karate Kid 1-3 (1984-1986-1989)(CZ-EN)[1080p] = CSFD 65% Hodnocení: Stiahnut
    Pozriet Online
    Kategória:HD Filmy Velikost:28.5 GB BitTorrent klient
    Pridaný: Súbory:
    Skontrolován:2022-01-03 Peerov:9 (Seed: 9, Leech: 0)
    Zaner:Drama,Rodinny,Sportovni Uploader:Uvidis, az ked budes
    VIP
    Kúp nám Pivo 1,10€

    Kúp nám Pivo
    Podporte nas na Facebooku !
    Pridaj do zalozky
    Pridaj do zalozky




    Jazyk: cz,eng
    Titulky: cz
    Rok vydání: 1984-1986-1989

    Karate Kid

    Režie: John G. Avildsen
    Hrají: Ralph Macchio, Pat Morita, Elisabeth Shue, Martin Kove, William Zabka, Chad McQueen, Bruce Malmuth, Larry Drake, Andrew Shue, Frances Bay

    Obsah:
    Danny La Russo se přestěhuje s matkou z New Jersey do Kalifornie. V novém prostředí se mu příliš nelíbí, zvláště když se hned ze začátku dostane do konfliktu s místní bandou výrostků, vedených sebevědomým Johnnym, který nesnáší, že se Danny úspěšně dvoří jeho bývalé dívce Ali. Danny se chce naučit karate, aby se vyrovnal fyzicky silnějším chlapcům, kteří navštěvují místní školu japonského bojového umění. Starý Japonec Miyagi se Dannyho ujme, vyjedná příměří s Johnnyho partou a slíbí chlapci, že ho připraví na místní přebory. Snaží se svému žákovi vysvětlit základní věc - ovládáním karate se má násilí zabránit, nikoli ho provokovat. Danny zprvu nechápe, proč má místo nácviku úderů natírat Miyagimu plot a leštit auta, ale Japonec chlapci dokáže správnost svého přístupu. Danny zahájí přebory váhavě, ale postupně se zlepšuje a dostane se až do finále...
    Format : Matroska
    Format version : Version 4 / Version 2
    File size : 12.6 GiB
    Duration : 2h 6mn
    Overall bit rate : 14.2 Mbps
    Encoded date : UTC 2020-10-30 18:01:36
    Writing application : mkvmerge v51.0.0 ('I Wish') 64-bit
    Writing library : libebml v1.4.0 + libmatroska v1.6.2
    DURATION : 02:06:53.266000000
    NUMBER_OF_FRAMES : 218584
    NUMBER_OF_BYTES : 182718380
    _STATISTICS_WRITING_APP : mkvmerge v51.0.0 ('I Wish') 64-bit
    _STATISTICS_WRITING_DATE_UTC : 2020-10-30 18:01:36
    _STATISTICS_TAGS : BPS DURATION NUMBER_OF_FRAMES NUMBER_OF_BYTES

    Video
    ID : 1
    Format : AVC
    Format/Info : Advanced Video Codec
    Format profile : High@L4.1
    Format settings, CABAC : Yes
    Format settings, ReFrames : 4 frames
    Codec ID : V_MPEG4/ISO/AVC
    Duration : 2h 6mn
    Bit rate : 12.5 Mbps
    Width : 1 920 pixels
    Height : 1 040 pixels
    Display aspect ratio : 1.85:1
    Frame rate mode : Constant
    Frame rate : 23.976 fps
    Color space : YUV
    Chroma subsampling : 4:2:0
    Bit depth : 8 bits
    Scan type : Progressive
    Bits/(Pixel*Frame) : 0.261
    Stream size : 10.8 GiB (86%)
    Writing library : x264 core 129 r2245 bc13772
    Encoding settings : cabac=1 / ref=4 / deblock=1:-3:-3 / analyse=0x3:0x113 / me=umh / subme=11 / psy=1 / psy_rd=1.00:0.00 / mixed_ref=1 / me_range=64 / chroma_me=1 / trellis=2 / 8x8dct=1 / cqm=0 / deadzone=21,11 / fast_pskip=1 / chroma_qp_offset=-2 / threads=12 / lookahead_threads=2 / sliced_threads=0 / nr=0 / decimate=1 / interlaced=0 / bluray_compat=0 / constrained_intra=0 / bframes=16 / b_pyramid=2 / b_adapt=2 / b_bias=0 / direct=1 / weightb=1 / open_gop=0 / weightp=2 / keyint=250 / keyint_min=24 / scenecut=40 / intra_refresh=0 / rc_lookahead=150 / rc=2pass / mbtree=1 / bitrate=12500 / ratetol=1.0 / qcomp=0.60 / qpmin=0 / qpmax=69 / qpstep=4 / cplxblur=20.0 / qblur=0.5 / vbv_maxrate=38000 / vbv_bufsize=30000 / nal_hrd=none / ip_ratio=1.40 / aq=1:1.00
    Language : English
    Default : Yes
    Forced : No

    Audio #1
    ID : 2
    Format : AC-3
    Format/Info : Audio Coding 3
    Mode extension : CM (complete main)
    Format settings, Endianness : Big
    Codec ID : A_AC3
    Duration : 2h 6mn
    Bit rate mode : Constant
    Bit rate : 192 Kbps
    Channel(s) : 2 channels
    Channel positions : Front: L R
    Sampling rate : 44.1 KHz
    Bit depth : 16 bits
    Compression mode : Lossy
    Stream size : 174 MiB (1%)
    Language : Czech
    Default : Yes
    Forced : No

    Audio #2
    ID : 3
    Format : DTS
    Format/Info : Digital Theater Systems
    Mode : 16
    Format settings, Endianness : Big
    Codec ID : A_DTS
    Duration : 2h 6mn
    Bit rate mode : Constant
    Bit rate : 1 509 Kbps
    Channel(s) : 6 channels
    Channel positions : Front: L C R, Side: L R, LFE
    Sampling rate : 48.0 KHz
    Bit depth : 24 bits
    Compression mode : Lossy
    Stream size : 1.34 GiB (11%)
    Language : English
    Default : No
    Forced : No

    Text
    ID : 4
    Format : PGS
    Muxing mode : zlib
    Codec ID : S_HDMV/PGS
    Codec ID/Info : The same subtitle format used on BDs/HD-DVDs
    Language : Czech
    Default : No
    Forced : No

    Karate Kid 2

    Režie: John G. Avildsen
    Hrají: Pat Morita, Ralph Macchio, Bruce Malmuth, Martin Kove, Sarah Kendall, Tamlyn Tomita, B.D. Wong, William Zabka, Chad McQueen, Clarence Gilyard Jr.

    Obsah:
    Šest měsíců po svém překvapivém vítězství v turnaji karate se Danny La Russo dozvídá, že jeho japonský učitel Mijagi odlétá na Okinawu za umírajícím otcem. Daniel se rozhodne odcestovat s ním. V letadle zjistí, že Mijagi opustil před lety rodný ostrov kvůli svému nejlepšímu příteli Satovi, který se zamiloval do stejné ženy, jako Mijagi. Starý Japonec zjišťuje, že Sato se s Jukio neoženil. Jeho přítel chce celou záležitost ukončit čestným soubojem. Mijagi se zdráhá řešit věci násilím, ale Sato, který prakticky vlastní celou vesnici, mu nedává jinou možnost, když souhlasí s Mijagiho podmínkou, že půda se navrátí do rukou vesničanů bez ohledu na výsledek souboje. Danny se dostává do konfliktu se Satovým agresivním synovcem Čozenem kvůli dívce Kumiko, ale dokáže se ubránit. Před ohlášeným soubojem vypukne hurikán, během něhož Mijagi zachrání Satovi život. Sato uznává svou chybu a vrací půdu vesničanům. Při oslavách se však nenapravitelný Čozen zmocní Kumiko a ohrožuje ji nožem. Danny znovu musí bojovat, tentokrát na život a na smrt...
    Format : Matroska
    Format version : Version 4 / Version 2
    File size : 8.05 GiB
    Duration : 1h 53mn
    Overall bit rate mode : Variable
    Overall bit rate : 10.2 Mbps
    Encoded date : UTC 2020-10-30 19:02:35
    Writing application : mkvmerge v51.0.0 ('I Wish') 64-bit
    Writing library : libebml v1.4.0 + libmatroska v1.6.2
    DURATION : 01:53:15.738000000
    NUMBER_OF_FRAMES : 195112
    NUMBER_OF_BYTES : 163097704
    _STATISTICS_WRITING_APP : mkvmerge v51.0.0 ('I Wish') 64-bit
    _STATISTICS_WRITING_DATE_UTC : 2020-10-30 19:02:35
    _STATISTICS_TAGS : BPS DURATION NUMBER_OF_FRAMES NUMBER_OF_BYTES

    Video
    ID : 1
    Format : AVC
    Format/Info : Advanced Video Codec
    Format profile : High@L4.1
    Format settings, CABAC : Yes
    Format settings, ReFrames : 4 frames
    Codec ID : V_MPEG4/ISO/AVC
    Width : 1 920 pixels
    Height : 1 040 pixels
    Display aspect ratio : 1.85:1
    Frame rate mode : Variable
    Color space : YUV
    Chroma subsampling : 4:2:0
    Bit depth : 8 bits
    Scan type : Progressive
    Writing library : x264 core 142 r2479 dd79a61
    Encoding settings : cabac=1 / ref=4 / deblock=1:-1:-1 / analyse=0x3:0x133 / me=umh / subme=9 / psy=1 / psy_rd=1.00:0.00 / mixed_ref=1 / me_range=24 / chroma_me=0 / trellis=1 / 8x8dct=1 / cqm=0 / deadzone=21,11 / fast_pskip=0 / chroma_qp_offset=-4 / threads=6 / lookahead_threads=1 / sliced_threads=0 / nr=0 / decimate=1 / interlaced=0 / bluray_compat=0 / constrained_intra=0 / bframes=3 / b_pyramid=2 / b_adapt=2 / b_bias=0 / direct=3 / weightb=1 / open_gop=0 / weightp=2 / keyint=240 / keyint_min=24 / scenecut=40 / intra_refresh=0 / rc_lookahead=50 / rc=crf / mbtree=1 / crf=22.0 / qcomp=0.60 / qpmin=0 / qpmax=69 / qpstep=4 / vbv_maxrate=62500 / vbv_bufsize=78125 / crf_max=0.0 / nal_hrd=none / filler=0 / ip_ratio=1.40 / aq=1:1.00
    Language : English
    Default : Yes
    Forced : No
    Color primaries : BT.709
    Transfer characteristics : BT.709
    Matrix coefficients : BT.709
    DURATION : 01:53:13.764000000
    NUMBER_OF_FRAMES : 162887
    NUMBER_OF_BYTES : 5362030184
    _STATISTICS_WRITING_APP : mkvmerge v51.0.0 ('I Wish') 64-bit
    _STATISTICS_WRITING_DATE_UTC : 2020-10-30 19:02:35
    _STATISTICS_TAGS : BPS DURATION NUMBER_OF_FRAMES NUMBER_OF_BYTES

    Audio #1
    ID : 2
    Format : AC-3
    Format/Info : Audio Coding 3
    Mode extension : CM (complete main)
    Format settings, Endianness : Big
    Codec ID : A_AC3
    Duration : 1h 53mn
    Bit rate mode : Constant
    Bit rate : 192 Kbps
    Channel(s) : 2 channels
    Channel positions : Front: L R
    Sampling rate : 44.1 KHz
    Bit depth : 16 bits
    Compression mode : Lossy
    Delay relative to video : -102ms
    Stream size : 156 MiB (2%)
    Language : Czech
    Default : Yes
    Forced : No

    Audio #2
    ID : 3
    Format : DTS
    Format/Info : Digital Theater Systems
    Format profile : MA / Core
    Mode : 16
    Format settings, Endianness : Big
    Codec ID : A_DTS
    Duration : 1h 53mn
    Bit rate mode : Variable
    Bit rate : Unknown / 1 509 Kbps
    Channel(s) : 6 channels
    Channel positions : Front: L C R, Side: L R, LFE
    Sampling rate : 48.0 KHz
    Bit depth : 24 bits
    Compression mode : Lossless / Lossy
    Language : English
    Default : No
    Forced : No
    DURATION : 01:53:13.760000000
    NUMBER_OF_FRAMES : 636915
    NUMBER_OF_BYTES : 3115867656
    _STATISTICS_WRITING_APP : mkvmerge v51.0.0 ('I Wish') 64-bit
    _STATISTICS_WRITING_DATE_UTC : 2020-10-30 19:02:35
    _STATISTICS_TAGS : BPS DURATION NUMBER_OF_FRAMES NUMBER_OF_BYTES

    Karate Kid 3

    Režie: John G. Avildsen
    Hrají: Ralph Macchio, Pat Morita, Robyn Lively, Thomas Ian Griffith, Jan Tříska, Martin Kove, Frances Bay

    Obsah:
    Daniel a jeho učitel pan Miagy se ocitají na počátku dalšího karate dobrodružství pro mládež. Nad Danielem se totiž stahují mraky. Agresivní učitel karate, jehož Daniel svým vítězstvím v prvním filmu znemožnil, se zvedá z prachu poražených a společně se svým nechutně bohatým a podlým žákem chystají rafinovanou pomstu.

    Format : Matroska
    Format version : Version 4 / Version 2
    File size : 7.88 GiB
    Duration : 1h 52mn
    Overall bit rate mode : Variable
    Overall bit rate : 10.0 Mbps
    Encoded date : UTC 2020-10-30 19:34:31
    Writing application : mkvmerge v51.0.0 ('I Wish') 64-bit
    Writing library : libebml v1.4.0 + libmatroska v1.6.2
    DURATION : 01:52:24.329000000
    NUMBER_OF_FRAMES : 193636
    NUMBER_OF_BYTES : 161863888
    _STATISTICS_WRITING_APP : mkvmerge v51.0.0 ('I Wish') 64-bit
    _STATISTICS_WRITING_DATE_UTC : 2020-10-30 19:34:31
    _STATISTICS_TAGS : BPS DURATION NUMBER_OF_FRAMES NUMBER_OF_BYTES

    Video
    ID : 1
    Format : AVC
    Format/Info : Advanced Video Codec
    Format profile : High@L4.1
    Format settings, CABAC : Yes
    Format settings, ReFrames : 4 frames
    Codec ID : V_MPEG4/ISO/AVC
    Width : 1 920 pixels
    Height : 1 040 pixels
    Display aspect ratio : 1.85:1
    Frame rate mode : Variable
    Color space : YUV
    Chroma subsampling : 4:2:0
    Bit depth : 8 bits
    Scan type : Progressive
    Writing library : x264 core 142 r2479 dd79a61
    Encoding settings : cabac=1 / ref=4 / deblock=1:-1:-1 / analyse=0x3:0x133 / me=umh / subme=9 / psy=1 / psy_rd=1.00:0.00 / mixed_ref=1 / me_range=24 / chroma_me=0 / trellis=1 / 8x8dct=1 / cqm=0 / deadzone=21,11 / fast_pskip=0 / chroma_qp_offset=-4 / threads=6 / lookahead_threads=1 / sliced_threads=0 / nr=0 / decimate=1 / interlaced=0 / bluray_compat=0 / constrained_intra=0 / bframes=3 / b_pyramid=2 / b_adapt=2 / b_bias=0 / direct=3 / weightb=1 / open_gop=0 / weightp=2 / keyint=240 / keyint_min=24 / scenecut=40 / intra_refresh=0 / rc_lookahead=50 / rc=crf / mbtree=1 / crf=24.0 / qcomp=0.60 / qpmin=0 / qpmax=69 / qpstep=4 / vbv_maxrate=62500 / vbv_bufsize=78125 / crf_max=0.0 / nal_hrd=none / filler=0 / ip_ratio=1.40 / aq=1:1.00
    Language : English
    Default : Yes
    Forced : No
    Color primaries : BT.709
    Transfer characteristics : BT.709
    Matrix coefficients : BT.709
    DURATION : 01:52:22.722000000
    NUMBER_OF_FRAMES : 161663
    NUMBER_OF_BYTES : 5102322089
    _STATISTICS_WRITING_APP : mkvmerge v51.0.0 ('I Wish') 64-bit
    _STATISTICS_WRITING_DATE_UTC : 2020-10-30 19:34:31
    _STATISTICS_TAGS : BPS DURATION NUMBER_OF_FRAMES NUMBER_OF_BYTES

    Audio #1
    ID : 2
    Format : AC-3
    Format/Info : Audio Coding 3
    Mode extension : CM (complete main)
    Format settings, Endianness : Big
    Codec ID : A_AC3
    Duration : 1h 52mn
    Bit rate mode : Constant
    Bit rate : 192 Kbps
    Channel(s) : 2 channels
    Channel positions : Front: L R
    Sampling rate : 44.1 KHz
    Bit depth : 16 bits
    Compression mode : Lossy
    Delay relative to video : -83ms
    Stream size : 154 MiB (2%)
    Language : Czech
    Default : Yes
    Forced : No

    Audio #2
    ID : 3
    Format : DTS
    Format/Info : Digital Theater Systems
    Format profile : MA / Core
    Mode : 16
    Format settings, Endianness : Big
    Codec ID : A_DTS
    Duration : 1h 52mn
    Bit rate mode : Variable
    Bit rate : Unknown / 1 509 Kbps
    Channel(s) : 6 channels
    Channel positions : Front: L C R, Side: L R, LFE
    Sampling rate : 48.0 KHz
    Bit depth : 24 bits
    Compression mode : Lossless / Lossy
    Language : English
    Default : No
    Forced : No
    DURATION : 01:52:22.731000000
    NUMBER_OF_FRAMES : 632131
    NUMBER_OF_BYTES : 3191790828
    _STATISTICS_WRITING_APP : mkvmerge v51.0.0 ('I Wish') 64-bit
    _STATISTICS_WRITING_DATE_UTC : 2020-10-30 19:34:31
    _STATISTICS_TAGS : BPS DURATION NUMBER_OF_FRAMES NUMBER_OF_BYTES

    CSFD
    http://www.csfd.cz/film/17947-karate-kid-karate-kid-the/
    http://www.csfd.cz/film/33510-karate-kid-2-karate-kid-part-ii-the/
    http://www.csfd.cz/film/29302-karate-kid-3-karate-kid-part-iii-the/



    ONLINE

    Karate Kid / The Karate Kid (1984)






    Karate Kid 2 / The Karate Kid, Part II (1986)






    Karate Kid 3 / The Karate Kid, Part III (1989)









    gerbil, Jooozef, OHV, valehrach, tomasdeen, Jablonka, pepa49,

    + Pridaj vlastnu verziu tohto torrentu +


    Upozornenie:
    Ziadny zo zobrazených súborov sa nenachádza na tomto serveri. Server slúzi len k síreniu vlastnorucne vytvorených aplikácií, videí, hudby ai. Autori stránok nenesú ziadnu zodpovednost za zverejnené odkazy, komentáre a obsah súborov. Vsetky komentáre, odkazy, súbory ktoré by svojou povahou mohli byt v rozpore zo zákonmi sem vkladáte na vlastnú zodpovednost. Autori stránok si vyhradzujú právo cenzúry odkazov, komentárov príp. súborov, ktoré by svojou povahou mohli byt v rozpore zo zákonmi a dobrými mravmi. Dodrzujte pravidlá!


    No comments...


    Back

    Na serveru se nenalézají zádne soubory. Za odkazy jsou výhradně zodpovědní uzivatelé a návstěvníci tohoto trackeru. Administrátor není zodpovědný za pridaný obsah ani za skody zpusobené uzivateli. Rozsirovat stránku nebo její obsah bez souhlasu ownera je zakázano. Nesmíte pouzívat tuto webovou stránku pro distribuovaní nebo download zádného materiálu pokud nemáte povolení od príslusného vlastníka práv. Uzivatelé jsou zodpovědní za dodrzování těchto pravidel a podmínek. Owner má právo kdykoliv změnit pravidla tohoto trackeru.

    [ Script trval: 0.025 sec. ] - [ GZIP: enabled ]
    Je zhruba 18:26
    sql

    TOPlist