Tvoj účet nieje VIP.
Preto sú tvoje funkcie a možnosti značne obmedzené.
Pre aktiváciu VIP klikni sem.

Kimetsu no Yaiba Mugen Ressha Hen / Demon Slayer the Movie: Mugen Train (2020)(JP/EN+CZtit.)[1080p] = CSFD 82% | SkTorrent.eu

Cz-SkTorrent open Tracker, na volné zdielanie súborov. Pridajte sa k nasej komunite a získajte pristup k tisícom torrentov.

  • vysoká rýchlost
  • úplne zdarma
  • prevazne Slovenska a Ceska scena
  • ste tu s nami uz 5 rokov - Dakujeme
  • Vitaj Guest (Login) Ako stahovat
    torrenty?
    Torrenty:
    v1 textová
    v2 obrázková
    v3 online filmy
    Ako sa stat
    Uploaderom
    Online
    Filmy
    Forum
    Pravidlá
    BitTorrent
    klient
    Meno: Heslo:
    Zaregistrovat
    Po zaregistrovaní mozte volne stahovat
    Zabudol som heslo

    Torrent's details
    Kimetsu no Yaiba Mugen Ressha Hen / Demon Slayer the Movie: Mugen Train (2020)(JP/EN+CZtit.)[1080p] = CSFD 82% Názov:Kimetsu no Yaiba Mugen Ressha Hen / Demon Slayer the Movie: Mugen Train (2020)(JP/EN+CZtit.)[1080p] = CSFD 82% Hodnocení: Stiahnut
    Pozriet Online
    Kategória:Filmy s titulkama Velikost:4.2 GB BitTorrent klient
    Pridaný: Súbory:
    Skontrolován:2022-05-01 Peerov:4 (Seed: 4, Leech: 0)
    Zaner:Akcni,Animovany,Fantasy,Komedie Uploader:Uvidis, az ked budes
    VIP
    Kúp nám Pivo 1,10€

    Kúp nám Pivo
    Podporte nas na Facebooku !
    Pridaj do zalozky
    Pridaj do zalozky




    Kimetsu no Yaiba Mugen Ressha Hen / Demon Slayer the Movie: Mugen Train (2020) = CSFD 82%



             

    Jazyk: japonský, anglický
    Titulky: české
    Zdroj CZ tituliek: kamui-subs.cz - LIFOsama
    Žáner: Animovaný / Akční / Fantasy / Komedie
    Témy: Anime, Akční, Fantasy, Historické, Nadpřirozeno, Podle mangy, Šónen
    Japonsko, 2020, 117 min

    Režie: Haruo Sotozaki
    Předloha: Kojoharu Gotóge (komiks)
    Kamera: Júiči Terao
    Hudba: Juki Kadžiura, Gó Šiina
    Japonský dabing: Nacuki Hanae, Akari Kitó, Hiro Šimono, Satoši Hino, Jošicugu Macuoka, Júja Hirose, Daisuke Hirakawa, Akira Išida, Tomokazu Sugita,...

    Predtím, než začnete, pozrite si:
    1. Kimetsu no yaiba / Demon Slayer - 1. serie (2019)

    Popis
    Počet obětí tajemných zmizení lidí na palubě jednoho pravidelného linkového vlaku se nebývale zvedl, což nemohlo ujít pozornosti organizace zabijáků démonů. Ovšem předchozí snaha o vyšetření celé situace, doplněná vysláním několika lovců, nevedla k žádnému výsledku a skončila pouze dalším krveprolitím a lidskou smrtí. Proto byl nyní na cestu vyslán Kyoujurou Rengoku, samotný ohnivý pilíř Hashirů, nejsilnějších bojovníků celé organizace, aby učinil tomuto řádění přítrž.





       

    Hlavní
    Format: Matroska
    Format version: Version 4
    File size: 4.16 GiB
    Duration: 1 h 56 min
    Overall bit rate: 5 091 kb/s
    Encoded date: UTC 2022-05-01 15:14:09
    Writing application: mkvmerge v64.0.0 ('Willows') 64-bit
    Writing library: libebml v1.4.2 + libmatroska v1.6.4 / Lavf58.29.100

    Video
    Format: AVC
    Format/Info: Advanced Video Codec
    Format profile: Main@L5.1
    Format settings: CABAC / 4 Ref Frames
    Format settings, CABAC: Yes
    Format settings, Reference frames: 4 frames
    Codec ID: V_MPEG4/ISO/AVC
    Duration: 1 h 56 min
    Bit rate: 4 011 kb/s
    Width: 1 920 pixels
    Height: 1 080 pixels
    Display aspect ratio: 16:9
    Frame rate mode: Variable
    Frame rate: 23.976 FPS
    Color space: YUV
    Chroma subsampling: 4:2:0
    Bit depth: 8 bits
    Scan type: Progressive
    Bits/(Pixel*Frame): 0.081
    Stream size: 3.27 GiB (79%)
    Writing library: x264 core 161 r3020 d198931
    Default: Yes
    Forced: No
    Color range: Full
    Color primaries: BT.709
    Transfer characteristics: BT.709
    Matrix coefficients: BT.709

    Audio #1
    Format: AAC LC
    Format/Info: Advanced Audio Codec Low Complexity
    Codec ID: A_AAC-2
    Duration: 1 h 56 min
    Bit rate: 312 kb/s
    Channel(s): 2 channels
    Channel layout: L R
    Sampling rate: 48.0 kHz
    Frame rate: 46.875 FPS (1024 SPF)
    Compression mode: Lossy
    Delay relative to video: 628 ms
    Stream size: 261 MiB (6%)
    Language: Japanese
    Default: Yes
    Forced: No

    Audio #2
    Format: E-AC-3
    Format/Info: Enhanced AC-3
    Commercial name: Dolby Digital Plus
    Codec ID: A_EAC3
    Duration: 1 h 56 min
    Bit rate mode: Constant
    Bit rate: 768 kb/s
    Channel(s): 6 channels
    Channel layout: L R C LFE Ls Rs
    Sampling rate: 48.0 kHz
    Frame rate: 31.250 FPS (1536 SPF)
    Compression mode: Lossy
    Stream size: 642 MiB (15%)
    Language: English
    Service kind: Complete Main
    Default: No
    Forced: No

    Text
    Format: ASS
    Codec ID: S_TEXT/ASS
    Codec ID/Info: Advanced Sub Station Alpha
    Duration: 1 h 51 min
    Bit rate: 90 b/s
    Count of elements: 1427
    Compression mode: Lossless
    Stream size: 73.9 KiB (0%)
    Language: Czech
    Default: Yes
    Forced: No


    Pre lepšie vyhľadávanie anime na webe SKT si nastavte vo vyhľadávaní kategóriu Animovany








    pohee, Nightroad, Agone, sabmiller,

    + Pridaj vlastnu verziu tohto torrentu +


    Upozornenie:
    Ziadny zo zobrazených súborov sa nenachádza na tomto serveri. Server slúzi len k síreniu vlastnorucne vytvorených aplikácií, videí, hudby ai. Autori stránok nenesú ziadnu zodpovednost za zverejnené odkazy, komentáre a obsah súborov. Vsetky komentáre, odkazy, súbory ktoré by svojou povahou mohli byt v rozpore zo zákonmi sem vkladáte na vlastnú zodpovednost. Autori stránok si vyhradzujú právo cenzúry odkazov, komentárov príp. súborov, ktoré by svojou povahou mohli byt v rozpore zo zákonmi a dobrými mravmi. Dodrzujte pravidlá!




    Uploader
    01/05/2022 18.20.55
    V ako poradí sledovať seriál Kimetsu no yaiba / Demon Slayer?

    1. Kimetsu no yaiba / Demon Slayer - 1. serie
    2. Kimetsu no Yaiba Mugen Ressha Hen / Demon Slayer the Movie: Mugen Train (2020)
    3. Kimetsu no Yaiba: Yuukaku Hen / Demon Slayer Mugen Train Arc  - 2. serie

    Bola oficiálne potvrdená práca na 3. sérií Kimetsu no yaiba / Demon Slayer. Novinky ohľadom anime pozorne sledujem. Novú sériu pridám až kým budú dostupné všetky diely s českými alebo slovenskými titulkami
    Uploader
    01/05/2022 18.12.50
    Druhú sériu Kimetsu no yaiba / Demon Slayer bude pridaná čoskoro.


    Back

    Na serveru se nenalézají zádne soubory. Za odkazy jsou výhradně zodpovědní uzivatelé a návstěvníci tohoto trackeru. Administrátor není zodpovědný za pridaný obsah ani za skody zpusobené uzivateli. Rozsirovat stránku nebo její obsah bez souhlasu ownera je zakázano. Nesmíte pouzívat tuto webovou stránku pro distribuovaní nebo download zádného materiálu pokud nemáte povolení od príslusného vlastníka práv. Uzivatelé jsou zodpovědní za dodrzování těchto pravidel a podmínek. Owner má právo kdykoliv změnit pravidla tohoto trackeru.

    [ Script trval: 0.027 sec. ] - [ GZIP: enabled ]
    Je zhruba 04:50
    sql

    TOPlist