Tvoj účet nieje VIP.
Preto sú tvoje funkcie a možnosti značne obmedzené.
Pre aktiváciu VIP klikni sem.

Kimetsu no Yaiba Yuukaku Hen / Demon Slayer Entertainment District Arc - 2. serie (2021)(JP/EN+CZtit.)[1080p] = CSFD 86% | SkTorrent.eu

Cz-SkTorrent open Tracker, na volné zdielanie súborov. Pridajte sa k nasej komunite a získajte pristup k tisícom torrentov.

  • vysoká rýchlost
  • úplne zdarma
  • prevazne Slovenska a Ceska scena
  • ste tu s nami uz 5 rokov - Dakujeme
  • Vitaj Guest (Login) Ako stahovat
    torrenty?
    Torrenty:
    v1 textová
    v2 obrázková
    v3 online filmy
    Ako sa stat
    Uploaderom
    Online
    Filmy
    Forum
    Pravidlá
    BitTorrent
    klient
    Meno: Heslo:
    Zaregistrovat
    Po zaregistrovaní mozte volne stahovat
    Zabudol som heslo

    Torrent's details
    Kimetsu no Yaiba Yuukaku Hen / Demon Slayer Entertainment District Arc - 2. serie (2021)(JP/EN+CZtit.)[1080p] = CSFD 86% Názov:Kimetsu no Yaiba Yuukaku Hen / Demon Slayer Entertainment District Arc - 2. serie (2021)(JP/EN+CZtit.)[1080p] = CSFD 86% Hodnocení:N/A Stiahnut
    Pozriet Online
    Kategória:Seriál Velikost:10.1 GB BitTorrent klient
    Pridaný: Súbory:
    Skontrolován:2022-05-08 Peerov:21 (Seed: 19, Leech: 2)
    Zaner:Akcni,Animovany,Drama,Fantasy Uploader:Uvidis, az ked budes
    VIP
    Kúp nám Pivo 1,10€

    Kúp nám Pivo
    Podporte nas na Facebooku !
    Pridaj do zalozky
    Pridaj do zalozky




    Kimetsu no Yaiba Yuukaku Hen / Demon Slayer Entertainment District Arc - 2. série (2021) = CSFD 86%



           

    Jazyk: japonský
    Titulky: české, anglické
    Zdroj CZ tituliek: hiyori.cz - Darker
    Žáner: Animovaný / Akční / Drama / Fantasy
    Témy: Anime, Akční, Fantasy, Historické, Nadpřirozeno, Podle mangy, Šónen
    Japonsko, 2021, 11 x 24 min

    Režie:  Takahiro Miura, Haruo Sotozaki, Kei Cunemacu, Ken Takahaši
    Předloha:  Kojoharu Gotóge (komiks)
    Kamera: Júiči Terao
    Hudba: Gó Šiina, Juki Kadžiura
    Japonský dabing: Akari Kitó, Nacuki Hanae, Hiro Šimono, Jošicugu Macuoka, Kacujuki Koniši, Akira Išida, Daisuke Hirakawa, Satoši Hino, Mijuki Sawaširo,...

    Predtím, než začnete, pozrite si:
    1. Kimetsu no yaiba / Demon Slayer - 1. serie (2019)
    2. Kimetsu no Yaiba Mugen Ressha Hen / Demon Slayer the Movie: Mugen Train (2020)

    Popis
    Druhá série anime Kimetsu no Yaiba nás zavede do Čtvrti červených světel neboli do čtvrti, ve které jde hlavně o zábavu, prostituci a sex. Naši hrdinové budou mít na starosti vypátrání démona, který tam způsobuje chaos. V tom jim bude pomáhat ninja Hashira Tengen Uzui, který ovládá Dech Zvuku.





       

    Hlavní
    Format: Matroska
    Format version: Version 4
    File size: 1.47 GiB
    Duration: 46 min 51 s
    Overall bit rate: 4 492 kb/s
    Movie name: Kimetsu no Yaiba: Yuukaku-hen 01
    Encoded date: UTC 2022-05-08 11:11:50
    Writing application: mkvmerge v64.0.0 ('Willows') 64-bit
    Writing library: libebml v1.4.2 + libmatroska v1.6.4 / Lavf58.76.100

    Video
    Format: HEVC
    Format/Info: High Efficiency Video Coding
    Format profile: Main 10@L4@Main
    Codec ID: V_MPEGH/ISO/HEVC
    Duration: 46 min 51 s
    Bit rate: 4 345 kb/s
    Width: 1 920 pixels
    Height: 1 080 pixels
    Display aspect ratio: 16:9
    Frame rate mode: Constant
    Frame rate: 23.976 (24000/1001) FPS
    Color space: YUV
    Chroma subsampling: 4:2:0
    Bit depth: 10 bits
    Bits/(Pixel*Frame): 0.087
    Stream size: 1.42 GiB (97%)
    Writing library: x265 3.5+1-f0c1022b6:[Linux][GCC 9.3.0][64 bit] 10bit
    Default: Yes
    Forced: No
    Color range: Limited
    Color primaries: BT.709
    Transfer characteristics: BT.709
    Matrix coefficients: BT.709

    Audio
    Format: AAC LC
    Format/Info: Advanced Audio Codec Low Complexity
    Codec ID: A_AAC-2
    Duration: 46 min 51 s
    Bit rate: 128 kb/s
    Channel(s): 2 channels
    Channel layout: L R
    Sampling rate: 44.1 kHzFrame rate: 43.066 FPS (1024 SPF)
    Compression mode: Lossy
    Stream size: 42.9 MiB (3%)
    Language: Japanese
    Default: Yes
    Forced: No

    Text #1
    Format: ASS
    Codec ID: S_TEXT/ASS
    Codec ID/Info: Advanced Sub Station Alpha
    Duration: 46 min 25 s
    Bit rate: 89 b/s
    Count of elements: 517
    Compression mode: Lossless
    Stream size: 30.4 KiB (0%)
    Language: English
    Default: No
    Forced: No

    Text #2
    Format: ASS
    Codec ID: S_TEXT/ASS
    Codec ID/Info: Advanced Sub Station Alpha
    Duration: 46 min 51 s
    Bit rate: 98 b/s
    Count of elements: 570
    Compression mode: Lossless
    Stream size: 33.8 KiB (0%)
    Language: Czech
    Default: Yes
    Forced: No


    Pre lepšie vyhľadávanie anime na webe SKT si nastavte vo vyhľadávaní kategóriu Animovany









    Agone, pohee, Balltar, speedy_11, strucky, Majkl65, funege,

    + Pridaj vlastnu verziu tohto torrentu +


    Upozornenie:
    Ziadny zo zobrazených súborov sa nenachádza na tomto serveri. Server slúzi len k síreniu vlastnorucne vytvorených aplikácií, videí, hudby ai. Autori stránok nenesú ziadnu zodpovednost za zverejnené odkazy, komentáre a obsah súborov. Vsetky komentáre, odkazy, súbory ktoré by svojou povahou mohli byt v rozpore zo zákonmi sem vkladáte na vlastnú zodpovednost. Autori stránok si vyhradzujú právo cenzúry odkazov, komentárov príp. súborov, ktoré by svojou povahou mohli byt v rozpore zo zákonmi a dobrými mravmi. Dodrzujte pravidlá!


    No comments...


    Back

    Na serveru se nenalézají zádne soubory. Za odkazy jsou výhradně zodpovědní uzivatelé a návstěvníci tohoto trackeru. Administrátor není zodpovědný za pridaný obsah ani za skody zpusobené uzivateli. Rozsirovat stránku nebo její obsah bez souhlasu ownera je zakázano. Nesmíte pouzívat tuto webovou stránku pro distribuovaní nebo download zádného materiálu pokud nemáte povolení od príslusného vlastníka práv. Uzivatelé jsou zodpovědní za dodrzování těchto pravidel a podmínek. Owner má právo kdykoliv změnit pravidla tohoto trackeru.

    [ Script trval: 0.024 sec. ] - [ GZIP: enabled ]
    Je zhruba 02:38
    sql

    TOPlist