Tvoj účet nieje VIP.
Preto sú tvoje funkcie a možnosti značne obmedzené.
Pre aktiváciu VIP klikni sem.

Kimi no Suizou o Tabetai / I Want to Eat Your Pancreas (2018)(JP+CZ/SKtit.)[1080p] = CSFD 85% | SkTorrent.eu

Cz-SkTorrent open Tracker, na volné zdielanie súborov. Pridajte sa k nasej komunite a získajte pristup k tisícom torrentov.

  • vysoká rýchlost
  • úplne zdarma
  • prevazne Slovenska a Ceska scena
  • ste tu s nami uz 5 rokov - Dakujeme
  • Vitaj Guest (Login) Ako stahovat
    torrenty?
    Torrenty:
    v1 textová
    v2 obrázková
    v3 online filmy
    Ako sa stat
    Uploaderom
    Online
    Filmy
    Forum
    Pravidlá
    BitTorrent
    klient
    Meno: Heslo:
    Zaregistrovat
    Po zaregistrovaní mozte volne stahovat
    Zabudol som heslo

    Torrent's details
    Kimi no Suizou o Tabetai / I Want to Eat Your Pancreas (2018)(JP+CZ/SKtit.)[1080p] = CSFD 85% Názov:Kimi no Suizou o Tabetai / I Want to Eat Your Pancreas (2018)(JP+CZ/SKtit.)[1080p] = CSFD 85% Hodnocení:N/A Stiahnut
    Pozriet Online
    Kategória:Filmy s titulkama Velikost:7.8 GB BitTorrent klient
    Pridaný: Súbory:
    Skontrolován:2022-06-16 Peerov:0 (Seed: 0, Leech: 0)
    Zaner:Animovany,Romanticky Uploader:Uvidis, az ked budes
    VIP
    Kúp nám Pivo 1,10€

    Kúp nám Pivo
    Podporte nas na Facebooku !
    Pridaj do zalozky
    Pridaj do zalozky




    Kimi no Suizou o Tabetai / I Want to Eat Your Pancreas (2018) = CSFD 85%



             

    Jazyk: japonský
    Titulky: české, slovenské, anglické
    Zdroj CZ tituliek: hiyori.cz -> Kamui-Subs
    Zdroj SK tituliek: anime-valhalla.4fan.cz -> Anime Valhalla
    Žáner: Animovaný / Romantický
    Témy: Anime, Drama, Podle novely, Romantika, Ze života
    Japonsko, 2018, 108 min

    Režie: Šin'ičiró Ušidžima
    Predloha: Joru Sumino (kniha)
    Scénář: Šin'ičiró Ušidžima
    Kamera: Majuko Koike
    Hudba: Hiroko Sebu
    Dabing: Mahiro Takasugi, Šin'ičiró Miki, Acuko Tanaka, Džun Fukušima, Jukijo Fudžii, Emi Wakui, Júma Učida, Lynn, Saja Mikami, Reió Cučida, Nene Hieda…

    Popis
    Asociální protagonista: Knihomol, který je odtažen od světa, ve kterém žije. Vůbec se nezajímá o ostatní a je pevně přesvědčen, že se nikdo nikdy nezajímal ani nezajímá o něj. Jeho příběh začíná, když mu zkříží cestu ručně psaná kniha nazvaná "Žití se Smrtí." Brzy zjistí, že se jedná o tajný deníček jeho populární, temperamentní spolužačky Sakury Yamauchi. Ta se mu svěří, že má nemocnou slinivku a moc času jí už nezbývá. O její nemoci věděla pouze její rodina, dokonce ani její nejlepší kamarádka se to nedozvěděla. Navzdory tomuto přiznání, knihomol neprojevuje žádné známky sympatie, chytí se však do Sakuřiných sítí a rozhodne se strávit s ní její zbytek života.





       

    Hlavní
    Format: Matroska
    Format version: Version 4
    File size: 7.77 GiB
    Duration: 1 h 48 min
    Overall bit rate mode: Variable
    Overall bit rate: 10.2 Mb/s
    Movie name: I Want To Eat Your Pancreas
    Encoded date: UTC 2022-06-05 18:29:56
    Writing application: mkvmerge v64.0.0 ('Willows') 64-bit
    Writing library: libebml v1.4.2 + libmatroska v1.6.4

    Video
    Format: HEVC
    Format/Info: High Efficiency Video Coding
    Format profile: Main 10@L4@Main
    Codec ID: V_MPEGH/ISO/HEVC
    Duration: 1 h 48 min
    Bit rate: 7 400 kb/s
    Width: 1 920 pixels
    Height: 1 080 pixels
    Display aspect ratio: 16:9
    Frame rate mode: Constant
    Frame rate: 23.976 (24000/1001) FPS
    Color space: YUV
    Chroma subsampling: 4:2:0
    Bit depth: 10 bits
    Bits/(Pixel*Frame): 0.149
    Stream size: 5.62 GiB (72%)
    Title: Video
    Writing library: x265 2.8+4-g561e20ee7+19:[Windows][GCC 7.1.0][64 bit] Asuna 10bit
    Language: Japanese
    Default: Yes
    Forced: No

    Audio
    Format: FLAC
    Format/Info: Free Lossless Audio Codec
    Codec ID: A_FLAC
    Duration: 1 h 48 min
    Bit rate mode: Variable
    Bit rate: 2 814 kb/s
    Channel(s): 6 channels
    Channel layout: L R C LFE Ls Rs
    Sampling rate: 48.0 kHz
    Frame rate: 10.417 FPS (4608 SPF)
    Bit depth: 24 bits
    Compression mode: Lossless
    Stream size: 2.14 GiB (28%)
    Writing library: Lavf58.30.100
    Language: Japanese
    Default: Yes
    Forced: No

    Text #1
    Format: ASS
    Codec ID: S_TEXT/ASS
    Codec ID/Info: Advanced Sub Station Alpha
    Duration: 1 h 48 min
    Bit rate: 104 b/s
    Count of elements: 1521
    Compression mode: Lossless
    Stream size: 82.9 KiB (0%)
    Language: Czech
    Default: Yes
    Forced: No


    Text #2
    Format: ASS
    Codec ID: S_TEXT/ASS
    Codec ID/Info: Advanced Sub Station Alpha
    Duration: 1 h 48 min
    Bit rate: 2 826 b/s
    Count of elements: 11489
    Compression mode: Lossless
    Stream size: 2.18 MiB (0%)
    Language: Slovak
    Default: No
    Forced: No

    Text #3
    Format: ASS
    Codec ID: S_TEXT/ASS
    Codec ID/Info: Advanced Sub Station Alpha
    Duration: 1 h 48 min
    Bit rate: 2 793 b/s
    Count of elements: 11487
    Compression mode: Lossless
    Stream size: 2.16 MiB (0%)
    Language: English
    Default: No
    Forced: No


    Pre lepšie vyhľadávanie anime na webe SKT si nastavte vo vyhľadávaní kategóriu Animovany








    Petriosek, Jablonka,

    + Pridaj vlastnu verziu tohto torrentu +


    Upozornenie:
    Ziadny zo zobrazených súborov sa nenachádza na tomto serveri. Server slúzi len k síreniu vlastnorucne vytvorených aplikácií, videí, hudby ai. Autori stránok nenesú ziadnu zodpovednost za zverejnené odkazy, komentáre a obsah súborov. Vsetky komentáre, odkazy, súbory ktoré by svojou povahou mohli byt v rozpore zo zákonmi sem vkladáte na vlastnú zodpovednost. Autori stránok si vyhradzujú právo cenzúry odkazov, komentárov príp. súborov, ktoré by svojou povahou mohli byt v rozpore zo zákonmi a dobrými mravmi. Dodrzujte pravidlá!


    No comments...


    Back

    Na serveru se nenalézají zádne soubory. Za odkazy jsou výhradně zodpovědní uzivatelé a návstěvníci tohoto trackeru. Administrátor není zodpovědný za pridaný obsah ani za skody zpusobené uzivateli. Rozsirovat stránku nebo její obsah bez souhlasu ownera je zakázano. Nesmíte pouzívat tuto webovou stránku pro distribuovaní nebo download zádného materiálu pokud nemáte povolení od príslusného vlastníka práv. Uzivatelé jsou zodpovědní za dodrzování těchto pravidel a podmínek. Owner má právo kdykoliv změnit pravidla tohoto trackeru.

    [ Script trval: 0.722 sec. ] - [ GZIP: enabled ]
    Je zhruba 09:57
    sql

    TOPlist