Tvoj účet nieje VIP.
Preto sú tvoje funkcie a možnosti značne obmedzené.
Pre aktiváciu VIP klikni sem.

Kimi no na wa. / Your Name. (2016)(EN/JP+CZtit.)[1080p][HEVC] = CSFD 85% | SkTorrent.eu

Cz-SkTorrent open Tracker, na volné zdielanie súborov. Pridajte sa k nasej komunite a získajte pristup k tisícom torrentov.

  • vysoká rýchlost
  • úplne zdarma
  • prevazne Slovenska a Ceska scena
  • ste tu s nami uz 5 rokov - Dakujeme
  • Vitaj Guest (Login) Ako stahovat
    torrenty?
    Torrenty:
    v1 textová
    v2 obrázková
    v3 online filmy
    Ako sa stat
    Uploaderom
    Online
    Filmy
    Forum
    Pravidlá
    BitTorrent
    klient
    Meno: Heslo:
    Zaregistrovat
    Po zaregistrovaní mozte volne stahovat
    Zabudol som heslo

    Torrent's details
    Kimi no na wa. / Your Name. (2016)(EN/JP+CZtit.)[1080p][HEVC] = CSFD 85% Názov:Kimi no na wa. / Your Name. (2016)(EN/JP+CZtit.)[1080p][HEVC] = CSFD 85% Hodnocení:N/A Stiahnut
    Pozriet Online
    Kategória:HD Filmy Velikost:2.4 GB BitTorrent klient
    Pridaný: Súbory:
    Skontrolován:2021-08-01 Peerov:23 (Seed: 23, Leech: 0)
    Zaner:Animovany,Drama,Fantasy,Romanticky Uploader:Uvidis, az ked budes
    VIP
    Kúp nám Pivo 1,10€

    Kúp nám Pivo
    Podporte nas na Facebooku !
    Pridaj do zalozky
    Pridaj do zalozky




    Kimi no na wa. / Your Name. (2016) = CSFD 85%



             

    Jazyk: japonský, anglický
    Titulky: anglické, české
    Zdroj CZ tituliek: titulky.com - Dan69
    Žánr: Animovaný / Fantasy / Romantický / Drama
    Témy: Anime, Drama, Nadpřirozeno, Romantika, Škola, Ze života, Změna pohlaví
    Japonsko, 2016, 106 min

    Režie: Makoto Šinkai
    Scénář: Makoto Šinkai
    Kamera: Conrad L. Hall
    Hudba: Radwimps
    Japonský dabing: Mone Kamishiraishi, Kamiki, Ryunosuke, Kana Hanazawa, Masami Nagasawa, Kanon Tani, Ryo Narita, Etsuko Ichihara, Aoi Yuuki, Nobunaga Shimazaki, Kaito Ishikawa...
    Anglický dabing: Stephanie Sheh, Michael Sinterniklaas, Maggie Flecknoe, Laura Post, Kyle Hebert, Cassandra Lee Morris, Ben Pronsky, Ray Chase...

    Popis
    "Příběh zázraků a lásky" se točí kolem dívky jménem Mitsuha a chlapce jménem Taki. Mitsuha je studentkou střední školy, která žije spolu se svou mladší sestrou a babičkou v málem městečku hluboko v horách. Mitsuha je dcerou zdejšího starosty, který je velmi přísný a obzvláště nyní, když se blíží další volby, chce, aby se jeho dcera chovala vzorně. Dívka je také svazována spoustou tradic spojených s tím, že se její rodina po několik generací stará o šintoistickou svatyni ve městě. Není tedy divu, že Mitsuha svůj život velmi těžce snáší a sní o nádherném životě ve velkém městě jakým je Tokio. V centru Tokia žije Taki, student střední školy, který tráví svůj volný čas se svými přáteli, nebo na brigádě v italské restauraci, kde pracuje jako číšník. Takiho velkým koníčkem je architektura a výtvarné umění. Jednoho dne má Mitsuha velmi živý sen, ve kterém je chlapcem v centru Tokia. Taki má také zvláštní živý sen, ve kterém je mladou studentkou v malém městečku v horách, kde nikdy nebyl...





       

    Hlavní
    Formát: Matroska
    Format version: Version 4
    Velikost souboru: 2,39 GiB
    Duration: 1 h 46 min
    Celkový BitRate: 3 215 kb/s
    Použitý software: mkvmerge v17.0.0 ('Be Ur Friend') 64-bit

    Video
    Formát: HEVC
    Formát/Info: High Efficiency Video Coding
    Format profile: Main 10@L4@Main
    Codec ID: V_MPEGH/ISO/HEVC
    Duration: 1 h 46 min
    Bit rate: 2 600 kb/s
    Šířka: 1 920pixely
    Výška: 1 080pixely
    Poměr stran: 16:9
    Frame rate mode: Constant
    Frame rate: 23,976 (24000/1001) FPS
    Color space: YUV
    Chroma subsampling: 4:2:0
    Bit depth: 10 bits
    Bits/(Pixel*Frame): 0.052
    Default: Ano
    Forced: Ne

    Audio #1
    Formát: AAC LC
    Formát/Info: Advanced Audio Codec Low Complexity
    Codec ID: A_AAC-2
    Duration: 1 h 46 min
    Bit rate: 296 kb/s
    Kanál(y): 6 kanály
    Channel layout: C L R Ls Rs LFE
    Sampling rate: 48,0 kHz
    Frame rate: 46,875 FPS (1024 SPF)
    Compression mode: Lossy
    Video delay: 21 ms
    Stream size: 226 MiB (9%)
    Titul: English Track (English Songs)
    Jazyk: English
    Default: Ne
    Forced: Ne

    Audio #2
    Formát: AAC LC
    Formát/Info: Advanced Audio Codec Low Complexity
    Codec ID: A_AAC-2
    Duration: 1 h 46 min
    Bit rate: 288 kb/s
    Kanál(y): 6 kanály
    Channel layout: C L R Ls Rs LFE
    Sampling rate: 48,0 kHz
    Frame rate: 46,875 FPS (1024 SPF)
    Compression mode: Lossy
    Video delay: 21 ms
    Stream size: 222 MiB (9%)
    Titul: Japanese Track (Japanese Songs)
    Jazyk: Japanese
    Default: Ano
    Forced: Ne

    Text #1
    Formát: ASS
    Codec ID: S_TEXT/ASS
    Codec ID/Info: Advanced Sub Station Alpha
    Duration: 1 h 29 min
    Bit rate: 5 209 b/s
    Count of elements: 14875
    Compression mode: Lossless
    Stream size: 3,33 MiB (0%)
    Titul: Signs
    Jazyk: English
    Default: Ne
    Forced: Ne

    Text #2
    Formát: ASS
    Codec ID: S_TEXT/ASS
    Codec ID/Info: Advanced Sub Station Alpha
    Duration: 1 h 45 min
    Bit rate: 4 529 b/s
    Count of elements: 16204
    Compression mode: Lossless
    Stream size: 3,42 MiB (0%)
    Titul: English Full Subtitles  [Visiccitude Modified]
    Jazyk: English
    Default: Ano
    Forced: Ne

    Text #3
    Formát: ASS
    Codec ID: S_TEXT/ASS
    Codec ID/Info: Advanced Sub Station Alpha
    Duration: 1 h 39 min
    Bit rate: 4 767 b/s
    Count of elements: 16246
    Compression mode: Lossless
    Stream size: 3,41 MiB (0%)
    Titul: English Full Subtitles [MTBB modified]
    Jazyk: English
    Default: Ne
    Forced: Ne


    Pre lepšie vyhľadávanie anime na webe SKT si nastavte vo vyhľadávaní kategóriu Animovany.









    Nhadagh, Agone, kacer, pohee, PetrJaros, Jablonka,

    + Pridaj vlastnu verziu tohto torrentu +


    Upozornenie:
    Ziadny zo zobrazených súborov sa nenachádza na tomto serveri. Server slúzi len k síreniu vlastnorucne vytvorených aplikácií, videí, hudby ai. Autori stránok nenesú ziadnu zodpovednost za zverejnené odkazy, komentáre a obsah súborov. Vsetky komentáre, odkazy, súbory ktoré by svojou povahou mohli byt v rozpore zo zákonmi sem vkladáte na vlastnú zodpovednost. Autori stránok si vyhradzujú právo cenzúry odkazov, komentárov príp. súborov, ktoré by svojou povahou mohli byt v rozpore zo zákonmi a dobrými mravmi. Dodrzujte pravidlá!


    No comments...


    Back

    Na serveru se nenalézají zádne soubory. Za odkazy jsou výhradně zodpovědní uzivatelé a návstěvníci tohoto trackeru. Administrátor není zodpovědný za pridaný obsah ani za skody zpusobené uzivateli. Rozsirovat stránku nebo její obsah bez souhlasu ownera je zakázano. Nesmíte pouzívat tuto webovou stránku pro distribuovaní nebo download zádného materiálu pokud nemáte povolení od príslusného vlastníka práv. Uzivatelé jsou zodpovědní za dodrzování těchto pravidel a podmínek. Owner má právo kdykoliv změnit pravidla tohoto trackeru.

    [ Script trval: 0.022 sec. ] - [ GZIP: enabled ]
    Je zhruba 15:35

    TOPlist