Tvoj účet nieje VIP.
Preto sú tvoje funkcie a možnosti značne obmedzené.
Pre aktiváciu VIP klikni sem.

Kobayashi san chi no Maid Dragon S / Miss Kobayashis Dragon Maid - 2. serie + OVA (2021)(JP+CZtit.)[1080p][HEVC] = CSFD 77% | SkTorrent.eu

Cz-SkTorrent open Tracker, na volné zdielanie súborov. Pridajte sa k nasej komunite a získajte pristup k tisícom torrentov.

  • vysoká rýchlost
  • úplne zdarma
  • prevazne Slovenska a Ceska scena
  • ste tu s nami uz 5 rokov - Dakujeme
  • Vitaj Guest (Login) Ako stahovat
    torrenty?
    Torrenty:
    v1 textová
    v2 obrázková
    v3 online filmy
    Ako sa stat
    Uploaderom
    Online
    Filmy
    Forum
    Pravidlá
    BitTorrent
    klient
    Meno: Heslo:
    Zaregistrovat
    Po zaregistrovaní mozte volne stahovat
    Zabudol som heslo

    Torrent's details
    Kobayashi san chi no Maid Dragon S / Miss Kobayashis Dragon Maid - 2. serie + OVA (2021)(JP+CZtit.)[1080p][HEVC] = CSFD 77% Názov:Kobayashi san chi no Maid Dragon S / Miss Kobayashis Dragon Maid - 2. serie + OVA (2021)(JP+CZtit.)[1080p][HEVC] = CSFD 77% Hodnocení:N/A Stiahnut
    Pozriet Online
    Kategória:Seriál Velikost:6.5 GB BitTorrent klient
    Pridaný: Súbory:
    Skontrolován:2022-06-16 Peerov:4 (Seed: 4, Leech: 0)
    Zaner:Animovany,Fantasy,Komedie Uploader:Uvidis, az ked budes
    VIP
    Kúp nám Pivo 1,10€

    Kúp nám Pivo
    Podporte nas na Facebooku !
    Pridaj do zalozky
    Pridaj do zalozky




    Kobayashi san chi no Maid Dragon S / Miss Kobayashis Dragon Maid - 2. serie + OVA (2021) = CSFD 77%



         

    Jazyk: japonský
    Titulky: české, anglické
    Žáner: Animovaný / Fantasy / Komedie
    Témy: Anime, Fantasy, Komedie, Podle mangy, Ze života
    Japonsko, 2021, 13x24 min

    Režie: Tacuja Išihara, Jasuhiro Takemoto, Haruka Fudžita
    Predloha:  Coolkjóšindža (komiks)
    Scénář: Juka Jamada, Fumihiko Šimo
    Kamera:Hiroki Ueda
    Hudba: Hikaru Nanase, Kotringo
    Japonský dabing: Mucumi Tamura, Júki Kuwahara, Maria Naganawa, Júki Takada, Tomomi Mineuči, Daisuke Ono, Emiri Kató, Júko Gotó, Kaori Išihara, Minami Takahaši…

    Popis
    Kobajaši bydlí sama v malém bytě a vede poklidný život. To se ale změní ve chvíli, kdy zachrání dračici Tóru a nabídne jí, že s ní může bydlet. Tóru je nadšená, a ač je Kobajaši podřadná a pošetilá lidská bytost, udělá vše pro to, aby Kobajaši usnadnila život. Začne Kobajaši pomáhat, kde jen může, ovšem ne vždy se vše povede, jak měla Tóru v plánu





       

    Hlavní
    Format: Matroska
    Format version: Version 4
    File size: 543 MiB
    Duration: 23 min 40 s
    Overall bit rate: 3 209 kb/s
    Encoded date: UTC 2022-01-07 16:05:46
    Writing application: mkvmerge v63.0.0 ('Everything') 64-bit
    Writing library: libebml v1.4.2 + libmatroska v1.6.4 / Lavf59.3.100
    Attachments: Roboto-Medium.ttf / Roboto-MediumItalic.ttf / arial.ttf / arialbd.ttf / comic.ttf / comicbd.ttf / times.ttf / timesbd.ttf / trebuc.ttf / trebucbd.ttf / verdana.ttf / verdanab.ttf

    Video
    Format: HEVC
    Format/Info: High Efficiency Video Coding
    Format profile: Main 10@L5@Main
    Codec ID: V_MPEGH/ISO/HEVC
    Duration: 23 min 39 s
    Bit rate: 3 045 kb/s
    Width: 1 920 pixels
    Height: 1 080 pixels
    Display aspect ratio: 16:9
    Frame rate mode: Constant
    Frame rate: 23.976 (24000/1001) FPS
    Color space: YUV
    Chroma subsampling: 4:2:0
    Bit depth: 10 bits
    Bits/(Pixel*Frame): 0.061
    Stream size: 515 MiB (95%)
    Writing library: x265 3.5+1-f0c1022b6:[Linux][GCC 8.3.0][64 bit] 10bit
    Default: Yes
    Forced: No
    Color range: Limited

    Audio
    Format: AAC LC
    Format/Info: Advanced Audio Codec Low Complexity
    Codec ID: A_AAC-2
    Duration: 23 min 40 s
    Bit rate: 128 kb/s
    Channel(s): 2 channels
    Channel layout: L R
    Sampling rate: 44.1 kHz
    Frame rate: 43.066 FPS (1024 SPF)
    Compression mode: Lossy
    Stream size: 21.7 MiB (4%)
    Language: Japanese
    Default: Yes
    Forced: No

    Text #1
    Format: ASS
    Codec ID: S_TEXT/ASS
    Codec ID/Info: Advanced Sub Station Alpha
    Duration: 23 min 39 s
    Bit rate: 199 b/s
    Count of elements: 458
    Compression mode: Lossless
    Stream size: 34.5 KiB (0%)
    Language: Czech
    Default: Yes
    Forced: No

    Text #2
    Format: ASS
    Codec ID: S_TEXT/ASS
    Codec ID/Info: Advanced Sub Station Alpha
    Duration: 23 min 39 s
    Bit rate: 193 b/s
    Count of elements: 469
    Compression mode: Lossless
    Stream size: 33.6 KiB (0%)
    Language: English
    Default: No
    Forced: No


    Pre lepšie vyhľadávanie anime na webe SKT si nastavte vo vyhľadávaní kategóriu Animovany








    Jablonka,

    + Pridaj vlastnu verziu tohto torrentu +


    Upozornenie:
    Ziadny zo zobrazených súborov sa nenachádza na tomto serveri. Server slúzi len k síreniu vlastnorucne vytvorených aplikácií, videí, hudby ai. Autori stránok nenesú ziadnu zodpovednost za zverejnené odkazy, komentáre a obsah súborov. Vsetky komentáre, odkazy, súbory ktoré by svojou povahou mohli byt v rozpore zo zákonmi sem vkladáte na vlastnú zodpovednost. Autori stránok si vyhradzujú právo cenzúry odkazov, komentárov príp. súborov, ktoré by svojou povahou mohli byt v rozpore zo zákonmi a dobrými mravmi. Dodrzujte pravidlá!


    No comments...


    Back

    Na serveru se nenalézají zádne soubory. Za odkazy jsou výhradně zodpovědní uzivatelé a návstěvníci tohoto trackeru. Administrátor není zodpovědný za pridaný obsah ani za skody zpusobené uzivateli. Rozsirovat stránku nebo její obsah bez souhlasu ownera je zakázano. Nesmíte pouzívat tuto webovou stránku pro distribuovaní nebo download zádného materiálu pokud nemáte povolení od príslusného vlastníka práv. Uzivatelé jsou zodpovědní za dodrzování těchto pravidel a podmínek. Owner má právo kdykoliv změnit pravidla tohoto trackeru.

    [ Script trval: 0.024 sec. ] - [ GZIP: enabled ]
    Je zhruba 07:21
    sql

    TOPlist