Tvoj účet nieje VIP.
Preto sú tvoje funkcie a možnosti značne obmedzené.
Pre aktiváciu VIP klikni sem.

| SkTorrent.eu

Cz-SkTorrent open Tracker, na volné zdielanie súborov. Pridajte sa k nasej komunite a získajte pristup k tisícom torrentov.

  • vysoká rýchlost
  • úplne zdarma
  • prevazne Slovenska a Ceska scena
  • ste tu s nami uz 5 rokov - Dakujeme
  • Vitaj Guest (Login) Ako stahovat
    torrenty?
    Torrenty:
    v1 textová
    v2 obrázková
    v3 online filmy
    Ako sa stat
    Uploaderom
    Online
    Filmy
    Forum
    Pravidlá
    BitTorrent
    klient
    Meno: Heslo:
    Zaregistrovat
    Po zaregistrovaní mozte volne stahovat
    Zabudol som heslo

    Torrent's details
    Kobra 11 - 12. série CZ / Alarm für Cobra 11 - Die Autobahnpolizei = CSFD 48% Názov:Kobra 11 - 12. série CZ / Alarm für Cobra 11 - Die Autobahnpolizei = CSFD 48% Hodnocení:N/A Stiahnut
    Pozriet Online
    Kategória:Seriál Velikost:5.5 GB BitTorrent klient
    Pridaný: Súbory:
    Skontrolován:2021-07-30 Peerov:1 (Seed: 1, Leech: 0)
    Zaner:Akcni,Drama,Krimi Uploader:Uvidis, az ked budes
    VIP
    Kúp nám Pivo 1,10€

    Kúp nám Pivo
    Podporte nas na Facebooku !
    Pridaj do zalozky
    Pridaj do zalozky




    Jazyk: CZ
    Titulky: NE
    CSFD: https://www.csfd.cz/film/112550-kobra-11/646311-serie-12/prehled/
    wikipedia: https://cs.wikipedia.org/wiki/Kobra_11

    Akční / Krimi / Drama
    Německo, (2007–2008), 10 h 1 min (Minutáž: 50–91 min)

    Režie: Axel Sand, Sebastian Vigg, Heinz Dietz, Christian Theede
    Scénář: Jan Martin Scharf, Arne Nolting, Mike Bäuml, Frank Koopmann, Horst Wieschen, Michael Krause, Lorenz Stassen, Ralf Ruland, Stefan Dauck, Christian Heider (méně)
    Kamera: Tobias Schmidt
    Hudba: Nik Reich
    Hrají: Carin C. Tietze, Carina N. Wiese, Gedeon Burkhard, Erdogan Atalay, Daniela Wutte, Charlotte Schwab, Hans Kremer, Dietmar Huhn, Guntbert Warns, Felix Lampe-Jovanovic, Isabelle Weiß, Patrick Heyn, Ingo Naujoks, Steffen Münster, Nadine Arents, Nicole Marischka, Ben Unterkofler, Martina Servatius, Gottfried Vollmer, Niels Kurvin, Roman Rossa, Margrit Sartorius, Johannes Hitzblech, Teresa Harder, Marcel Vietzke, Carolin Imcke, Max Herbrechter, Gesine Cukrowski, Nicolas Solar Lozier, Anne-Luise Tietz, Jörg Panknin, Matthias Ziesing, Erich Krieg, Caroline Scholze, Jevgenij Sitočin, Oliver Broumis, Oliver Stritzel, Nadine Warmuth, Rainer Will, Annett Fleischer, Jan Martin Scharf, Tilo Prückner, Lutz Herkenrath, Daniel Drewes, Holger Handtke, Christoph Hohmann, Kai Möller, Michael Brandner, Liane Forestieri, Jamie Bick, Anna Bertheau, Sascha Göpel, Urs Fabian Winiger, Julia Weden, Oliver Sauer, Nina Siebertz, Andreas Brucker, Götz Burger, Udo Schenk, Stephanie Kellner, Günter Barton, Tatjana Blacher, Alissa Jung, Aljosha Horvat, Frank Maier, Volker Büdts, Peter Ketnath, Dirk Borchardt, Suzan Anbeh, Peer Jäger, Huub Stapel, Nic Romm, Ania Niedieck, Steffen Bielig (méně)
    Produkce: Stefan Retzbach
    Střih: Martin Rahner, Martin Habig
    Scénografie: Paul Margono
    (méně profesí)

    Jejich revírem je dálnice, jejich tempo vražedné, jejich soupeři jsou zloději aut, vrazi, vyděrači ...

    Media info:

    Hlavní
    Celý název a cesta                       : C:\Users\Desktop\12. série\1 - Město v ohrožení.avi
    Formát                                   : AVI
    Formát/Info                              : Audio Video Interleave
    Velikost souboru                         : 1 000 MiB
    Duration                                 : 1 h 30 min
    Celkový BitRate                          : 1 540 kb/s
    Použitý software                         : MEncoder dev-CVS-060101-18:59-4.0.2
    Enkódoval                                : MPlayer

    Video
    ID                                       : 0
    Formát                                   : MPEG-4 Visual
    Format profile                           : Simple@L1
    Format settings, BVOP                    : Ne
    Format settings, QPel                    : Ne
    Format settings, GMC                     : No warppoints
    Format settings, Matrix                  : Default (H.263)
    Codec ID                                 : DIVX
    Codec ID/Info                            : Project Mayo
    Codec ID/Hint                            : DivX 4
    Duration                                 : 1 h 30 min
    Bit rate                                 : 1 401 kb/s
    Šířka                                    : 544pixely
    Výška                                    : 304pixely
    Poměr stran                              : 16:9
    Frame rate                               : 25,000 FPS
    Color space                              : YUV
    Chroma subsampling                       : 4:2:0
    Bit depth                                : 8 bits
    Scan type                                : Progressive
    Compression mode                         : Lossy
    Bits/(Pixel*Frame)                       : 0.339
    Stream size                              : 910 MiB (91%)
    Enkódoval                                : Lavc51.0.0

    Audio
    ID                                       : 1
    Formát                                   : AC-3
    Formát/Info                              : Audio Coding 3
    Commercial name                          : Dolby Digital
    Codec ID                                 : 2000
    Duration                                 : 1 h 30 min
    Bit rate mode                            : Constant
    Bit rate                                 : 128 kb/s
    Kanál(y)                                 : 2 kanály
    Channel layout                           : L R
    Sampling rate                            : 48,0 kHz
    Frame rate                               : 31,250 FPS (1536 SPF)
    Compression mode                         : Lossy
    Stream size                              : 83,1 MiB (8%)
    Alignment                                : Aligned on interleaves
    Interleave, duration                     : 32  ms (0,80 video frame)
    Interleave, preload duration             : 512  ms
    Service kind                             : Complete Main

    Seznam epizod 12. série

    1 - Město v ohrožení
    2 - Stará škola
    3 - Infarkt
    4 - Únos
    5 - Krysí hnízdo
    6 - Stoprocentní ztráta
    7 - Vymahač
    8 - Oko za oko
    9 - Exodus
    10 - Žít a nechat žít
    11 - Mezi přáteli









    + Pridaj vlastnu verziu tohto torrentu +


    Upozornenie:
    Ziadny zo zobrazených súborov sa nenachádza na tomto serveri. Server slúzi len k síreniu vlastnorucne vytvorených aplikácií, videí, hudby ai. Autori stránok nenesú ziadnu zodpovednost za zverejnené odkazy, komentáre a obsah súborov. Vsetky komentáre, odkazy, súbory ktoré by svojou povahou mohli byt v rozpore zo zákonmi sem vkladáte na vlastnú zodpovednost. Autori stránok si vyhradzujú právo cenzúry odkazov, komentárov príp. súborov, ktoré by svojou povahou mohli byt v rozpore zo zákonmi a dobrými mravmi. Dodrzujte pravidlá!


    No comments...


    Back

    Na serveru se nenalézají zádne soubory. Za odkazy jsou výhradně zodpovědní uzivatelé a návstěvníci tohoto trackeru. Administrátor není zodpovědný za pridaný obsah ani za skody zpusobené uzivateli. Rozsirovat stránku nebo její obsah bez souhlasu ownera je zakázano. Nesmíte pouzívat tuto webovou stránku pro distribuovaní nebo download zádného materiálu pokud nemáte povolení od príslusného vlastníka práv. Uzivatelé jsou zodpovědní za dodrzování těchto pravidel a podmínek. Owner má právo kdykoliv změnit pravidla tohoto trackeru.

    [ Script trval: 0.775 sec. ] - [ GZIP: enabled ]
    Je zhruba 00:28

    TOPlist