Tvoj účet nieje VIP.
Preto sú tvoje funkcie a možnosti značne obmedzené.
Pre aktiváciu VIP klikni sem.

| SkTorrent.eu

Cz-SkTorrent open Tracker, na volné zdielanie súborov. Pridajte sa k nasej komunite a získajte pristup k tisícom torrentov.

  • vysoká rýchlost
  • úplne zdarma
  • prevazne Slovenska a Ceska scena
  • ste tu s nami uz 5 rokov - Dakujeme
  • Vitaj Guest (Login) Ako stahovat
    torrenty?
    Torrenty:
    v1 textová
    v2 obrázková
    v3 online filmy
    Ako sa stat
    Uploaderom
    Online
    Filmy
    Forum
    Pravidlá
    BitTorrent
    klient
    Meno: Heslo:
    Zaregistrovat
    Po zaregistrovaní mozte volne stahovat
    Zabudol som heslo

    Torrent's details
    Kobra 11 - 13. série CZ / Alarm für Cobra 11 - Die Autobahnpolizei = CSFD 48% Názov:Kobra 11 - 13. série CZ / Alarm für Cobra 11 - Die Autobahnpolizei = CSFD 48% Hodnocení:N/A Stiahnut
    Pozriet Online
    Kategória:Seriál Velikost:6.8 GB BitTorrent klient
    Pridaný: Súbory:
    Skontrolován:2021-07-31 Peerov:0 (Seed: 0, Leech: 0)
    Zaner:Akcni,Drama,Krimi Uploader:Uvidis, az ked budes
    VIP
    Kúp nám Pivo 1,10€

    Kúp nám Pivo
    Podporte nas na Facebooku !
    Pridaj do zalozky
    Pridaj do zalozky




    Jazyk: CZ
    Titulky: NE
    CSFD: https://www.csfd.cz/film/112550-kobra-11/646312-serie-13/prehled/
    wikipedia: https://cs.wikipedia.org/wiki/Kobra_11

    Akční / Krimi / Drama
    Německo, (2008–2009), 13 h 40 min (Minutáž: 45–105 min)

    Režie: Axel Sand, Sebastian Vigg, Heinz Dietz, Alexander Sascha Thiel, Jan Martin Scharf, Holger Haase (méně)
    Scénář: Jan Martin Scharf, Arne Nolting, Horst Wieschen, Boris von Sychowski, Jürgen Matthäi, Ralf Ruland, Stefan Dauck (méně)
    Kamera: Theo Müller, Jörg Lawerentz, Tobias Schmidt
    Hudba: Nik Reich
    Hrají: Christian Tramitz, Tom Beck, Erdogan Atalay, Daniela Wutte, Gruschenka Stevens, Charlotte Schwab, Dietmar Huhn, Huub Stapel, Peter W. Bachmann, Antje Schmidt, Thomas Büchel, Carina N. Wiese, Katja Woywood, Gottfried Vollmer, Philipp Moog, Sandro Lohmann, Niels Kurvin, Charlotte Bohning, Anja Nejarri, Mathias Kopetzki, Frank Sieckel, Sina Tkotsch, Marcel Vietzke, Julia Beerhold, Stephan Kampwirth, Katharina Abt, Anian Zollner, Joel Basman, Kerstin Thielemann, Stefan Richter, Jürgen Rißmann, Tim Seyfi, Willi Herren, Ilknur Boyraz, Mariangela Scelsi, Numan Acar, Eralp Uzun, Christian Bergmann, Klaus Peeck, Annalena Duken, Sven Walser, Michael Greiling, Silvan-Pierre Leirich, Simone Hanselmann, Ralph Misske, André Röhner, Robert Giggenbach, Vasilis Spiliopoulos, Carlos Lobo, Mark Zak, Kerstin Landsmann, Mario Irrek, Carolina Vera, Charly Hübner, Thomas Gimbel, Sven Martinek, Philippe Reinhardt, Stefanie Schmid, Gerhard Naujoks, Mateo Wansing Lorrio, Aaron Hildebrand, Enno Hesse, Siggi Müller, Steffen Groth, Jan-Gregor Kremp, Rolf Kanies, Sascha Nathan, Walter Gontermann, Melanie Blocksdorf, Markus Meyer, Lutz Blochberger, Philipp Schepmann, Joyce Ilg, Daniel Aichinger, Max Volkert Martens, Patrick Rapold, Josef Heynert, Winfried Küppers, Rainer Laupichler, Cornelius Schwalm, Florentine Lahme, Stefan Rudolf, Isabell Gerschke, Peter Nitzsche, Peter Kremer, Kristina Karst, Jörg Reimers, Stefan Bockelmann, Martin Falk (méně)
    Produkce: Stefan Retzbach
    Střih: Martin Rahner, Martin Habig
    Scénografie: Paul Margono
    (méně profesí)

    Jejich revírem je dálnice, jejich tempo vražedné, jejich soupeři jsou zloději aut, vrazi, vyděrači ...

    Media info:

    Hlavní
    Celý název a cesta                       : C:\Users\Desktop\13. série\1 - Na vlastní pěst (část 1).avi
    Formát                                   : AVI
    Formát/Info                              : Audio Video Interleave
    Velikost souboru                         : 463 MiB
    Duration                                 : 41 min 9 s
    Celkový BitRate                          : 1 571 kb/s
    Použitý software                         : VirtualDubMod 1.5.10.2 (build 2540/release)
    Enkódoval                                : VirtualDub build 24415/release

    Video
    ID                                       : 0
    Formát                                   : MPEG-4 Visual
    Format profile                           : Advanced Simple@L5
    Format settings                          : BVOP2
    Format settings, BVOP                    : 2
    Format settings, QPel                    : Ne
    Format settings, GMC                     : No warppoints
    Format settings, Matrix                  : Default (MPEG)
    Codec ID                                 : XVID
    Codec ID/Hint                            : XviD
    Duration                                 : 41 min 9 s
    Bit rate                                 : 1 434 kb/s
    Šířka                                    : 640pixely
    Výška                                    : 352pixely
    Poměr stran                              : 16:9
    Frame rate                               : 25,000 FPS
    Color space                              : YUV
    Chroma subsampling                       : 4:2:0
    Bit depth                                : 8 bits
    Scan type                                : Progressive
    Compression mode                         : Lossy
    Bits/(Pixel*Frame)                       : 0.255
    Stream size                              : 422 MiB (91%)
    Enkódoval                                : XviD 1.0.3 (UTC 2004-12-20)

    Audio
    ID                                       : 1
    Formát                                   : MPEG Audio
    Format version                           : Version 1
    Format profile                           : Layer 3
    Format settings                          : Joint stereo / MS Stereo
    Codec ID                                 : 55
    Codec ID/Hint                            : MP3
    Duration                                 : 41 min 9 s
    Bit rate mode                            : Constant
    Bit rate                                 : 128 kb/s
    Kanál(y)                                 : 2 kanály
    Sampling rate                            : 48,0 kHz
    Compression mode                         : Lossy
    Stream size                              : 37,7 MiB (8%)
    Alignment                                : Aligned on interleaves
    Interleave, duration                     : 40  ms (1,00 video frame)
    Interleave, preload duration             : 504  ms

    Seznam epizod 13. série

    1 - Na vlastní pěst (část 1)
    1 - Na vlastní pěst (část 2)
    2 - Kdo jednou lže
    3 - Krkavčí matka
    4 - Pod tlakem
    5 - Muž v pozadí
    6 - Na konci mládí
    7 - Zrada
    8 - Osobní strážce
    9 - Pohřbený zaživa
    10 - Okno
    11 - Géniové mezi sebou
    12 - Sebevražedné komando
    13 - Nevěsta
    14 - Spiknutí
    15 - Černá Madonna









    + Pridaj vlastnu verziu tohto torrentu +


    Upozornenie:
    Ziadny zo zobrazených súborov sa nenachádza na tomto serveri. Server slúzi len k síreniu vlastnorucne vytvorených aplikácií, videí, hudby ai. Autori stránok nenesú ziadnu zodpovednost za zverejnené odkazy, komentáre a obsah súborov. Vsetky komentáre, odkazy, súbory ktoré by svojou povahou mohli byt v rozpore zo zákonmi sem vkladáte na vlastnú zodpovednost. Autori stránok si vyhradzujú právo cenzúry odkazov, komentárov príp. súborov, ktoré by svojou povahou mohli byt v rozpore zo zákonmi a dobrými mravmi. Dodrzujte pravidlá!


    No comments...


    Back

    Na serveru se nenalézají zádne soubory. Za odkazy jsou výhradně zodpovědní uzivatelé a návstěvníci tohoto trackeru. Administrátor není zodpovědný za pridaný obsah ani za skody zpusobené uzivateli. Rozsirovat stránku nebo její obsah bez souhlasu ownera je zakázano. Nesmíte pouzívat tuto webovou stránku pro distribuovaní nebo download zádného materiálu pokud nemáte povolení od príslusného vlastníka práv. Uzivatelé jsou zodpovědní za dodrzování těchto pravidel a podmínek. Owner má právo kdykoliv změnit pravidla tohoto trackeru.

    [ Script trval: 0.023 sec. ] - [ GZIP: enabled ]
    Je zhruba 01:41

    TOPlist