Tvoj účet nieje VIP.
Preto sú tvoje funkcie a možnosti značne obmedzené.
Pre aktiváciu VIP klikni sem.

| SkTorrent.eu

Cz-SkTorrent open Tracker, na volné zdielanie súborov. Pridajte sa k nasej komunite a získajte pristup k tisícom torrentov.

  • vysoká rýchlost
  • úplne zdarma
  • prevazne Slovenska a Ceska scena
  • ste tu s nami uz 5 rokov - Dakujeme
  • Vitaj Guest (Login) Ako stahovat
    torrenty?
    Torrenty:
    v1 textová
    v2 obrázková
    v3 online filmy
    Ako sa stat
    Uploaderom
    Online
    Filmy
    Forum
    Pravidlá
    BitTorrent
    klient
    Meno: Heslo:
    Zaregistrovat
    Po zaregistrovaní mozte volne stahovat
    Zabudol som heslo

    Torrent's details
    Kobra 11 - 14. série CZ / Alarm für Cobra 11 - Die Autobahnpolizei = CSFD 48% Názov:Kobra 11 - 14. série CZ / Alarm für Cobra 11 - Die Autobahnpolizei = CSFD 48% Hodnocení:N/A Stiahnut
    Pozriet Online
    Kategória:Seriál Velikost:6.0 GB BitTorrent klient
    Pridaný: Súbory:
    Skontrolován:2021-07-31 Peerov:7 (Seed: 0, Leech: 7)
    Zaner:Akcni,Drama,Krimi Uploader:Uvidis, az ked budes
    VIP
    Kúp nám Pivo 1,10€

    Kúp nám Pivo
    Podporte nas na Facebooku !
    Pridaj do zalozky
    Pridaj do zalozky




    Jazyk: CZ
    Titulky: NE
    CSFD: https://www.csfd.cz/film/112550-kobra-11/646313-serie-14/prehled/
    wikipedia: https://cs.wikipedia.org/wiki/Kobra_11

    Akční / Krimi / Drama
    Německo, (2009–2010), 13 h 10 min (Minutáž: 50–90 min)

    Režie: Axel Sand, Alexander Sascha Thiel, Heinz Dietz, Franco Tozza
    Scénář: Jan Martin Scharf, Arne Nolting, Horst Wieschen, Jürgen Matthäi, Frank Koopmann, Lorenz Stassen, Ralf Ruland, Stefan Dauck (méně)
    Kamera: Axel Sand, Tobias Schmidt
    Hudba: Nik Reich
    Hrají: Katja Woywood, Oona-Devi Liebich, Tom Beck, Max Gertsch, Juliette Menke, Erdogan Atalay, Daniela Wutte, Ulrich Cyran, Dietmar Huhn, Collien Ulmen-Fernandes, Oliver Pocher, Rainer Goernemann, Stefan Richter, Niels Kurvin, Wolf Roth, Gerit Kling, Michael Schenk, Tanja Lanäus, Gottfried Vollmer, Nils Düwell, Karl Kranzkowski, Jennifer Ulrich, Philipp Danne, Dieter Matthes, Vasilis Spiliopoulos, Wilfried Hochholdinger, Constantin von Jascheroff, Jochen Nickel, Sinta Weisz, Ronald Hansch, Christoph Hemrich, Vinzenz Kiefer, Jessica Richter, Wolfgang Menardi, Murat Seven, Thomas Katzmann, Milton Welsh, Christian Koerner, Susan Sideropoulos, Christian Tasche, Petra Blossey, Konstantin Graudus, Carl Stück, Lena Amende, Frank Glaser, Ulrich Wiggers, Peter Benedict, Josef Wolf, Dominic Oley, Doreen Jacobi, Holger Doellmann, Tobias Kay, Stefan Gebelhoff, Ljubisa Gruicic, Jasmin Gerat, Dirk Martens, Vijessna Ferkic, Oliver Marlo, Carina N. Wiese, Juri Padel, Elyas M'Barek, Florian Panzner, Mina Tander, Miguel Herz-Kestranek, Oliver Masucci, Yu Fang, Sylta Fee Wegmann, Astrid Kohrs, Joachim Nimtz, Mathieu Carrière, Axel Gottschick, Kerstin Thielemann, Kai Ebel, Cosma Shiva Hagen, Raphaël Vogt, Daniel Lommatzsch, Sebastian Kroehnert, Tonio Arango, Mirko Lang, Martin Luding, Bernd Gnann, Christian Feist, Stephane Lalloz, Jenny Winkler, Nils A. Schulz, Tillbert Strahl, Ralf Richter, Miranda Leonhardt, André Dietz, Julia Hartmann, Markus Majowski, Rudolf Kowalski, André Hennicke, Manuela Wisbeck, Michael Härle, Oliver Stein, Steffen Laube, Manuel Schlegel, Richard Hucke (méně)
    Produkce: Stefan Retzbach
    Střih: Martin Rahner, Henk Drees, Martin Habig
    Scénografie: Paul Margono
    Kostýmy: Till Fuhrmann
    (méně profesí)

    Jejich revírem je dálnice, jejich tempo vražedné, jejich soupeři jsou zloději aut, vrazi, vyděrači ...

    Media info:

    Hlavní
    Celý název a cesta                       : C:\Users\
    Desktop\14. série\1 - Konec světa (část 1).avi
    Formát                                   : AVI
    Formát/Info                              : Audio Video Interleave
    Velikost souboru                         : 345 MiB
    Duration                                 : 42 min 21 s
    Celkový BitRate                          : 1 137 kb/s
    Použitý software                         : Lavf56.36.100
    Enkódoval                                : VirtualDub build 32842/release

    Video
    ID                                       : 0
    Formát                                   : xvid
    Codec ID                                 : xvid
    Duration                                 : 42 min 21 s
    Bit rate                                 : 1 000 kb/s
    Šířka                                    : 720pixely
    Výška                                    : 404pixely
    Poměr stran                              : 16:9
    Frame rate                               : 25,000 FPS
    Bits/(Pixel*Frame)                       : 0.137
    Stream size                              : 303 MiB (88%)

    Audio
    ID                                       : 1
    Formát                                   : MPEG Audio
    Format version                           : Version 1
    Format profile                           : Layer 3
    Format settings                          : Joint stereo / MS Stereo
    Codec ID                                 : 55
    Codec ID/Hint                            : MP3
    Duration                                 : 42 min 21 s
    Bit rate mode                            : Constant
    Bit rate                                 : 128 kb/s
    Kanál(y)                                 : 2 kanály
    Sampling rate                            : 48,0 kHz
    Compression mode                         : Lossy
    Stream size                              : 38,8 MiB (11%)
    Alignment                                : Split across interleaves
    Interleave, duration                     : 40  ms (1,00 video frame)
    Interleave, preload duration             : 500  ms

    Seznam epizod 14. série

    1 - Konec světa (část 1)
    1 - Konec světa (část 2)
    2 - Panter
    3 - Operace Gemini
    4 - Ztracený syn
    5 - Bratrská láska
    6 - Staří přátelé
    7 - Kartel
    8 - Rýn v plamenech
    9 - Milovaný nepřítel
    10 - Kóma
    11 - Odměna za zabití Kim Krügerové
    12 - Kybernetická bouře
    13 - Zatmění
    14 - Beze stopy
    15 - Operace Tygr










    + Pridaj vlastnu verziu tohto torrentu +


    Upozornenie:
    Ziadny zo zobrazených súborov sa nenachádza na tomto serveri. Server slúzi len k síreniu vlastnorucne vytvorených aplikácií, videí, hudby ai. Autori stránok nenesú ziadnu zodpovednost za zverejnené odkazy, komentáre a obsah súborov. Vsetky komentáre, odkazy, súbory ktoré by svojou povahou mohli byt v rozpore zo zákonmi sem vkladáte na vlastnú zodpovednost. Autori stránok si vyhradzujú právo cenzúry odkazov, komentárov príp. súborov, ktoré by svojou povahou mohli byt v rozpore zo zákonmi a dobrými mravmi. Dodrzujte pravidlá!


    No comments...


    Back

    Na serveru se nenalézají zádne soubory. Za odkazy jsou výhradně zodpovědní uzivatelé a návstěvníci tohoto trackeru. Administrátor není zodpovědný za pridaný obsah ani za skody zpusobené uzivateli. Rozsirovat stránku nebo její obsah bez souhlasu ownera je zakázano. Nesmíte pouzívat tuto webovou stránku pro distribuovaní nebo download zádného materiálu pokud nemáte povolení od príslusného vlastníka práv. Uzivatelé jsou zodpovědní za dodrzování těchto pravidel a podmínek. Owner má právo kdykoliv změnit pravidla tohoto trackeru.

    [ Script trval: 0.020 sec. ] - [ GZIP: enabled ]
    Je zhruba 00:31

    TOPlist