Tvoj účet nieje VIP.
Preto sú tvoje funkcie a možnosti značne obmedzené.
Pre aktiváciu VIP klikni sem.

Koe no Katachi / A Silent Voice (2016)(JP+CZtit.)[1080p] = CSFD 85% | SkTorrent.eu

Cz-SkTorrent open Tracker, na volné zdielanie súborov. Pridajte sa k nasej komunite a získajte pristup k tisícom torrentov.

  • vysoká rýchlost
  • úplne zdarma
  • prevazne Slovenska a Ceska scena
  • ste tu s nami uz 5 rokov - Dakujeme
  • Vitaj Guest (Login) Ako stahovat
    torrenty?
    Torrenty:
    v1 textová
    v2 obrázková
    v3 online filmy
    Ako sa stat
    Uploaderom
    Online
    Filmy
    Forum
    Pravidlá
    BitTorrent
    klient
    Meno: Heslo:
    Zaregistrovat
    Po zaregistrovaní mozte volne stahovat
    Zabudol som heslo

    Torrent's details
    Koe no Katachi / A Silent Voice (2016)(JP+CZtit.)[1080p] = CSFD 85% Názov:Koe no Katachi / A Silent Voice (2016)(JP+CZtit.)[1080p] = CSFD 85% Hodnocení: Stiahnut
    Pozriet Online
    Kategória:Filmy s titulkama Velikost:3.8 GB BitTorrent klient
    Pridaný: Súbory:
    Skontrolován:2022-04-09 Peerov:3 (Seed: 3, Leech: 0)
    Zaner:Animovany,Drama,Psychologicky,Romanticky Uploader:Uvidis, az ked budes
    VIP
    Kúp nám Pivo 1,10€

    Kúp nám Pivo
    Podporte nas na Facebooku !
    Pridaj do zalozky
    Pridaj do zalozky




    Koe no Katachi / A Silent Voice (2016) = CSFD 85%


           

    Jazyk: japonský
    Titulky: české
    Zdroj CZ tituliek: hanabi.fan - Hanabi
    Žáner: Animovaný / Dráma / Psychologický / Romantický
    Témy: Anime, Dospívání, Drama, Pocity úzkosti, Podle mangy, Romantika, Škola, Šónen
    Japonsko, 2016, 130 min

    Režie: Naoko Jamada
    Predloha: Jošitoki Óima (komiks)
    Scénář: Reiko Jošida
    Kamera:Kazuya Takao
    Hudba: Kensuke Ušio
    Japonský dabing: Saori Hayami, Miyu Irino, Aoi Yūki, Yūki Kaneko, Kensho Ono, Kamata Erena, Ryunosuke Watanuki, Satsuki Yukino, Yui Ishikawa, Toshiyuki Toyonaga,...

    Popis
    Shoya Ishida, co šikanoval dívku Nishimiyu (Nishimiya Shoko je neslyšící dívka) na základní škole, je později šikanován svými starými přáteli. Silně začal ostatní ignorovat a představovat si je s velkými X na obličeji. Má obrovské výčitky a nejraději by zabil své staré já. Přemýšlel o sebevraždě, nicméně si to rozmyslel poté, co se za minulé okolnosti omluvil Nishimiye a začal s ní trávit čas. Pomalu se v příběhu učí znakovou řeč a je na ni docela talent. Postupem příběhu pomáhá Nishimiye spřátelit se s ostatními, jelikož sama nikdy nedostala možnost.





       

    Hlavní
    Format: Matroska
    Format version: Version 4
    File size: 3.77 GiB
    Duration: 2 h 9 min
    Overall bit rate: 4 162 kb/s
    Encoded date: UTC 2021-12-06 07:32:14
    Writing application: mkvmerge v63.0.0 ('Everything') 64-bit
    Writing library: libebml v1.4.2 + libmatroska v1.6.4

    Video
    Format: AVC
    Format/Info: Advanced Video Codec
    Format profile: High 10@L5
    Format settings: CABAC / 8 Ref Frames
    Format settings, CABAC: Yes
    Format settings, Reference frames: 8 frames
    Codec ID: V_MPEG4/ISO/AVC
    Duration: 2 h 9 min
    Bit rate: 3 540 kb/s
    Width: 1 920 pixels
    Height: 1 036 pixels
    Display aspect ratio: 1.85:1
    Frame rate mode: Constant
    Frame rate: 23.976 (24000/1001) FPS
    Color space: YUV
    Chroma subsampling: 4:2:0
    Bit depth: 10 bits
    Scan type: Progressive
    Bits/(Pixel*Frame): 0.074
    Stream size: 3.21 GiB (85%)
    Writing library: x264 core 142 r2431+42 c69a006 tMod [10-bit@all X86_64]
    Language: Japanese
    Default: Yes
    Forced: No
    Color range: Limited
    Matrix coefficients: BT.709

    Audio
    Format: AAC LC
    Format/Info: Advanced Audio Codec Low Complexity
    Codec ID: A_AAC-2
    Duration: 2 h 9 min
    Bit rate: 618 kb/s
    Channel(s): 6 channels
    Channel layout: C L R Ls Rs LFE
    Sampling rate: 48.0 kHz
    Frame rate: 46.875 FPS (1024 SPF)
    Compression mode: Lossy
    Stream size: 574 MiB (15%)
    Title: 5.1 audio
    Language: Japanese
    Default: Yes
    Forced: No

    Text
    Format: ASS
    Codec ID: S_TEXT/ASS
    Codec ID/Info: Advanced Sub Station Alpha
    Duration: 2 h 3 min
    Bit rate: 85 b/s
    Count of elements: 1737
    Compression mode: Lossless
    Stream size: 77.5 KiB (0%)
    Title: cestina
    Language: Czech
    Default: Yes
    Forced: No


    Pre lepšie vyhľadávanie anime na webe SKT si nastavte vo vyhľadávaní kategóriu Animovany








    K28ttt46, pohee, Jablonka, Petriosek,

    + Pridaj vlastnu verziu tohto torrentu +


    Upozornenie:
    Ziadny zo zobrazených súborov sa nenachádza na tomto serveri. Server slúzi len k síreniu vlastnorucne vytvorených aplikácií, videí, hudby ai. Autori stránok nenesú ziadnu zodpovednost za zverejnené odkazy, komentáre a obsah súborov. Vsetky komentáre, odkazy, súbory ktoré by svojou povahou mohli byt v rozpore zo zákonmi sem vkladáte na vlastnú zodpovednost. Autori stránok si vyhradzujú právo cenzúry odkazov, komentárov príp. súborov, ktoré by svojou povahou mohli byt v rozpore zo zákonmi a dobrými mravmi. Dodrzujte pravidlá!


    No comments...


    Back

    Na serveru se nenalézají zádne soubory. Za odkazy jsou výhradně zodpovědní uzivatelé a návstěvníci tohoto trackeru. Administrátor není zodpovědný za pridaný obsah ani za skody zpusobené uzivateli. Rozsirovat stránku nebo její obsah bez souhlasu ownera je zakázano. Nesmíte pouzívat tuto webovou stránku pro distribuovaní nebo download zádného materiálu pokud nemáte povolení od príslusného vlastníka práv. Uzivatelé jsou zodpovědní za dodrzování těchto pravidel a podmínek. Owner má právo kdykoliv změnit pravidla tohoto trackeru.

    [ Script trval: 0.023 sec. ] - [ GZIP: enabled ]
    Je zhruba 01:22
    sql

    TOPlist