Tvoj účet nieje VIP.
Preto sú tvoje funkcie a možnosti značne obmedzené.
Pre aktiváciu VIP klikni sem.

Kolekce filmu Karla Zemana - Baron Prasil, Na komete, Cesta do praveku, Blaznova kronika, Pohadky 1000 a jedne noci, Vynalez zkazy, Ukradena vzducholod (1961-1970)(CZ) = CSFD 85% | SkTorrent.eu

Cz-SkTorrent open Tracker, na volné zdielanie súborov. Pridajte sa k nasej komunite a získajte pristup k tisícom torrentov.

  • vysoká rýchlost
  • úplne zdarma
  • prevazne Slovenska a Ceska scena
  • ste tu s nami uz 5 rokov - Dakujeme
  • Vitaj Guest (Login) Ako stahovat
    torrenty?
    Torrenty:
    v1 textová
    v2 obrázková
    v3 online filmy
    Ako sa stat
    Uploaderom
    Online
    Filmy
    Forum
    Pravidlá
    BitTorrent
    klient
    Meno: Heslo:
    Zaregistrovat
    Po zaregistrovaní mozte volne stahovat
    Zabudol som heslo

    Torrent's details
    Kolekce filmu  Karla Zemana - Baron Prasil, Na komete, Cesta do praveku, Blaznova kronika, Pohadky 1000 a jedne noci, Vynalez zkazy, Ukradena vzducholod (1961-1970)(CZ) = CSFD 85% Názov:Kolekce filmu Karla Zemana - Baron Prasil, Na komete, Cesta do praveku, Blaznova kronika, Pohadky 1000 a jedne noci, Vynalez zkazy, Ukradena vzducholod (1961-1970)(CZ) = CSFD 85% Hodnocení: Stiahnut
    Pozriet Online
    Kategória:Filmy DVD Velikost:27.0 GB BitTorrent klient
    Pridaný: Súbory:
    Skontrolován:2014-03-19 Peerov:3 (Seed: 3, Leech: 0)
    Zaner:Animovany,Dobrodruzny,Fantasy,Sci-Fi Uploader:Uvidis, az ked budes
    VIP
    Kúp nám Pivo 1,10€

    Kúp nám Pivo
    Podporte nas na Facebooku !
    Pridaj do zalozky
    Pridaj do zalozky





    ŽANR Animovaný / Sci-Fi / Fantasy / Dobrodružný
    DELKA 83 MINUT
    ROK 1961
    JAZYK CZ
    TITULKY NE
    MENU A BONUSY NE NE
    CSFD http://www.csfd.cz/film/10099-baron-prasil/
    POPIS
    Tento film inspirovaný knihou R. E. Raspeho z roku 1785 je skutečnou pastvou pro oči, uši a mysl. Příběh zacíná v 18. století v malém městečku, které je neustále okupováno Turky, a kde hraje malá herečka společnost na zakázku pro ministra války a jeho přátele hru o fiktivních dobrodružstvích Barona Prášila. Běhěm představení však do sálu vstoupí starý voják tvrdící o sobě, že je pravým Baronem Prášilem. Tento Baron Prášil pak začne předváděnou hru uvádět na správnou míru. Vyprávění Barona Prášila tak spojuje jednotlivá pozoruhodná dobrodružství, která Bar...
    MEDIA INFO
    BARON PRASILGeneral
    Complete name: Cocuments and SettingsjirkaDokumentykompletni kolekce karla zemana dvd kolekcearon prasilVTS_01_1.VOB
    Format: MPEG-PS
    File size: 1 024 MiB
    Duration: 26mn 24s
    Overall bit rate: 5 421 Kbps

    Video
    ID: 224 (0xE0)
    Format: MPEG Video
    Format version: Version 2
    Format profile: Main@Main
    Format settings, BVOP: Yes
    Format settings, Matrix: Custom
    Duration: 26mn 24s
    Bit rate mode: Variable
    Bit rate: 5 121 Kbps
    Maximum bit rate: 9 800 Kbps
    Width: 720 pixels
    Height: 480 pixels
    Display aspect ratio: 4:3
    Frame rate: 29.970 fps
    Standard: NTSC
    Color space: YUV
    Chroma subsampling: 4:2:0
    Bit depth: 8 bits
    Scan type: Interlaced
    Scan order: Top Field First
    Compression mode: Lossy
    Bits/(Pixel*Frame): 0.494
    Stream size: 967 MiB (94%)

    Audio
    ID: 189 (0xBD)-128 (0x80)
    Format: AC-3
    Format/Info: Audio Coding 3
    Mode extension: CM (complete main)
    Muxing mode: DVD-Video
    Duration: 26mn 24s
    Bit rate mode: Constant
    Bit rate: 192 Kbps
    Channel(s): 2 channels
    Channel positions: Front: L R
    Sampling rate: 48.0 KHz
    Bit depth: 16 bits
    Compression mode: Lossy
    Stream size: 36.3 MiB (4%)



    ROK 1966
    ZANR Rodinný / Dobrodružný / Fantasy / Historický
    DELKA 88 MINUT
    JAZYK CZ
    TITULKY NE
    MENU A BONUSY NE NE
    CSFD http://www.csfd.cz/film/10123-ukradena-vzducholod/
    POPIS
    Děj začíná na pražské Jubilejní výstavě roku 1891. Pět pražských kluků se schází na pražském Výstavišti, kde vidí fantastický zázrak řiditelnou vzducholoď podnikatele Findejse. Kvůli reklamě nabízí chlapcům let zdarma, ale když se hlásí platící zájemci, chce je vyhnat. Kluci se nedají ze vzducholodi vypudit a najednou se ocitají nad městem. Ovšem vzducholoď řiditelná není! Nejprve přelétli bezpečně celou Evropu, ale potom havarovali na neznámém ostrově uprostřed oceánu. Zde prožili řadu typicky verneovských dobrodružství, než byli zachráněni výpravou, org...
    MEDIA INFO
    UKRADENA VZDUCHOLODGeneral
    Complete name: Cocuments and SettingsjirkaDokumentykompletni kolekce karla zemana dvd kolekceukradena vzducholodVTS_01_1.VOB
    Format: MPEG-PS
    File size: 1 024 MiB
    Duration: 23mn 38s
    Overall bit rate: 6 056 Kbps

    Video
    ID: 224 (0xE0)
    Format: MPEG Video
    Format version: Version 2
    Format profile: Main@Main
    Format settings, BVOP: Yes
    Format settings, Matrix: Custom
    Duration: 23mn 38s
    Bit rate mode: Variable
    Bit rate: 5 551 Kbps
    Maximum bit rate: 9 800 Kbps
    Width: 720 pixels
    Height: 480 pixels
    Display aspect ratio: 16:9
    Frame rate: 29.970 fps
    Standard: NTSC
    Color space: YUV
    Chroma subsampling: 4:2:0
    Bit depth: 8 bits
    Compression mode: Lossy
    Bits/(Pixel*Frame): 0.536
    Stream size: 939 MiB (92%)

    Audio
    ID: 189 (0xBD)-128 (0x80)
    Format: AC-3
    Format/Info: Audio Coding 3
    Mode extension: CM (complete main)
    Muxing mode: DVD-Video
    Duration: 23mn 38s
    Bit rate mode: Constant
    Bit rate: 384 Kbps
    Channel(s): 2 channels
    Channel positions: Front: L R
    Sampling rate: 48.0 KHz
    Bit depth: 16 bits
    Compression mode: Lossy
    Stream size: 64.9 MiB (6%)



    DELKA 93 MINUT
    ROK 1955
    ZANR Dobrodružný / Fantasy / Rodinný / Sci-Fi
    JAZYK CZ
    TITULKY NE
    MENU A BONUSY NE NE
    CSFD http://www.csfd.cz/film/10103-cesta-do-praveku/

    POPIS
    Český barevný fantasticko - naučný film o výpravě čtyř chlapců do pravěku. Jeden z chlapců najde u jeskyně, z které vytéká řeka, trilobita. Nemůže však pochopit, že je to tvor, který žil před mnoha miliony lety. Nepomáhají ani výklady z knih, ani návštěva museí. Nakonec se chlapci rozhodnou vypravit se jako ve starých verneovkách do pravěku. Vplují do jeskyně loďkou a skutečně se dostanou do doby ledové, Třetihor, Druhohor, Carbonu a Siluru. Poznají, jakými mnohotvárnými změnami prošla Země a život na ní. Naukovost filmu je jemně spojena s jednotlivými do...
    MEDIA INFO
    CESTA DO PRAVEKUGeneral
    Complete name: Cocuments and SettingsjirkaDokumentykompletni kolekce karla zemana dvd kolekcecesta do pravekuVTS_01_1.VOB
    Format: MPEG-PS
    File size: 1 024 MiB
    Duration: 25mn 22s
    Overall bit rate: 5 643 Kbps

    Video
    ID: 224 (0xE0)
    Format: MPEG Video
    Format version: Version 2
    Format profile: Main@Main
    Format settings, BVOP: Yes
    Format settings, Matrix: Custom
    Duration: 25mn 22s
    Bit rate mode: Variable
    Bit rate: 5 339 Kbps
    Maximum bit rate: 9 800 Kbps
    Width: 720 pixels
    Height: 480 pixels
    Display aspect ratio: 4:3
    Frame rate: 29.970 fps
    Standard: NTSC
    Color space: YUV
    Chroma subsampling: 4:2:0
    Bit depth: 8 bits
    Scan type: Interlaced
    Scan order: Top Field First
    Compression mode: Lossy
    Bits/(Pixel*Frame): 0.515
    Stream size: 969 MiB (95%)

    Audio
    ID: 189 (0xBD)-128 (0x80)
    Format: AC-3
    Format/Info: Audio Coding 3
    Mode extension: CM (complete main)
    Muxing mode: DVD-Video
    Duration: 25mn 21s
    Bit rate mode: Constant
    Bit rate: 192 Kbps
    Channel(s): 2 channels
    Channel positions: Front: L R
    Sampling rate: 48.0 KHz
    Bit depth: 16 bits
    Compression mode: Lossy
    Stream size: 34.8 MiB (3%)



    DELKA 78 MINUT
    ROK 1958
    ZANR Dobrodružný / Fantasy / Sci-Fi / Rodinný
    JAZYK CZ
    TITULKY NE
    MENU A BONUSY NE,NE
    CSFD http://www.csfd.cz/film/10125-vynalez-zkazy/
    Zlotřilý dobrodruh Artigas, který zbohatl na krádežích podmořských pokladů, unesl profesora Rocha, objevitele účinné výbušniny, a hodlá jeho vynález zneužít k ovládnutí světa. Mladý profesorův asistent ing. Hart hodlá zlosynovi v jeho plánech zabránit za každou cenu. Pro lidstvo zachraňuje svobodu a pro sebe lásku půvabné profesorovy dcery Jany. Slavný film Karla Zemana vznikl v roce 1958 na motivy románů Julese Vernea a s použitím výtvarných předloh původních verneovských ilustrátorů Riona a Benneta. Kombinace kresleného a hraného filmu dosáhla zde neoby...
    MEDIA INFO
    VYNALEZ ZKAZIGeneral
    Complete name: Cocuments and SettingsjirkaDokumentykompletni kolekce karla zemana dvd kolekcevynalez zkaziVTS_01_1.VOB
    Format: MPEG-PS
    File size: 1 024 MiB
    Duration: 25mn 24s
    Overall bit rate: 5 634 Kbps

    Video
    ID: 224 (0xE0)
    Format: MPEG Video
    Format version: Version 2
    Format profile: Main@Main
    Format settings, BVOP: Yes
    Format settings, Matrix: Custom
    Duration: 25mn 24s
    Bit rate mode: Variable
    Bit rate: 5 330 Kbps
    Maximum bit rate: 9 800 Kbps
    Width: 720 pixels
    Height: 480 pixels
    Display aspect ratio: 4:3
    Frame rate: 29.970 fps
    Standard: NTSC
    Color space: YUV
    Chroma subsampling: 4:2:0
    Bit depth: 8 bits
    Scan type: Interlaced
    Scan order: Top Field First
    Compression mode: Lossy
    Bits/(Pixel*Frame): 0.515
    Stream size: 969 MiB (95%)

    Audio
    ID: 189 (0xBD)-128 (0x80)
    Format: AC-3
    Format/Info: Audio Coding 3
    Mode extension: CM (complete main)
    Muxing mode: DVD-Video
    Duration: 25mn 24s
    Bit rate mode: Constant
    Bit rate: 192 Kbps
    Channel(s): 2 channels
    Channel positions: Front: L R
    Sampling rate: 48.0 KHz
    Bit depth: 16 bits
    Compression mode: Lossy
    Stream size                      : 34.9 MiB (3%)



    DELKA 90 MINUT
    ROK 1974
    ZANR POHADKA
    JAZYK CZ
    TITULKY NE
    MENU A BONUSY NE,NE,

    CSFD POHADKY 1000 A JEDNE NOCI
    POPIS
    Klasik domácího trikového filmu Karel Zeman se na od 70. let začal vracet k čistě animované tvorbě. Jako inspirace mu posloužily arabské pohádky o námořníku Sindbádovi. Původně samostatné krátké snímky (celkem jich bylo sedm) později sestavil do celovečerního tvaru, aniž by potlačil epizodický charakter: líčí, jak se hlavní hrdina ocitl v zemi obrů, jak zmáhal nástrahy magnetové hory či mořského sultána, nechybí ani létající koberec. Výtvarně se Zeman pokusil napodobit styl perských a arabských miniatur.
    MEDIA INFO
    POHADKY 1000 A JEDNE NOCIGeneral
    Complete name: Cocuments and SettingsjirkaDokumentykompletni kolekce karla zemana dvd kolekcepohadky 1000 a jedne nociVTS_01_2.VOB
    Format: MPEG-PS
    File size: 1 024 MiB
    Duration: 26mn 3s
    Overall bit rate: 5 494 Kbps

    Video
    ID: 224 (0xE0)
    Format: MPEG Video
    Format version: Version 2
    Format profile: Main@Main
    Format settings, BVOP: Yes
    Format settings, Matrix: Custom
    Format settings, GOP: M=1, N=15
    Duration: 26mn 3s
    Bit rate mode: Variable
    Bit rate: 5 193 Kbps
    Maximum bit rate: 9 800 Kbps
    Width: 720 pixels
    Height: 480 pixels
    Display aspect ratio: 4:3
    Frame rate: 29.970 fps
    Standard: NTSC
    Color space: YUV
    Chroma subsampling: 4:2:0
    Bit depth: 8 bits
    Scan type: Interlaced
    Scan order: Top Field First
    Compression mode: Lossy
    Bits/(Pixel*Frame): 0.501
    Stream size: 968 MiB (94%)

    Audio
    ID: 189 (0xBD)-128 (0x80)
    Format: AC-3
    Format/Info: Audio Coding 3
    Mode extension: CM (complete main)
    Muxing mode: DVD-Video
    Duration: 26mn 3s
    Bit rate mode: Constant
    Bit rate: 192 Kbps
    Channel(s): 2 channels
    Channel positions: Front: L R
    Sampling rate: 48.0 KHz
    Bit depth: 16 bits
    Compression mode: Lossy
    Delay relative to video: -581ms
    Stream size: 35.8 MiB (3%)



    DELKA 20 MINUT
    ROK 1980
    ZANR Dokumentární / Krátkometrážní
    JAZYK CZ
    TITULKY NE
    MENU A BONUSY NE,NE
    CSFD KAREL ZEMAN

    DETEM

    POPIS
    pakobylka z ČSFD
    Přes krátkou stopáž se jedná o dokument, který dokázal zachytit to podstatné z tvorby výjimečné osobnosti s velkým nadáním a s bezbřehou fantazií.
    ruut z ČSFD
    Pouze kratičký dvacetiminutový dokument snažící se zjednodušeně dětskému divákovy přiblížit tvorbu genia českého filmu. I na tomto omezeném prostoru je ukázáno několik nejpoužívanějších fíglů a jenom lituji toho že nejsou k dispozici pořádné dokumenty po vzoru současných DVD edicí zahraničních fimů. Největší prostor je věnovaný práci s miniaturamy a a zapracovávání živých herců do takto vzniklých kulis. Zajímavé jsou i hrátky s kouřem. Dokument jen potvrzuje vyjímečný talent režisera.
    MEDIA INFO
    KAREL ZEMAN DETEMGeneral
    Complete name: Cocuments and SettingsjirkaDokumentykompletni kolekce karla zemana dvd kolekcekarel zeman detemVTS_01_1.VOB
    Format: MPEG-PS
    File size: 1 024 MiB
    Duration: 17mn 15s
    Overall bit rate: 8 296 Kbps

    Video
    ID: 224 (0xE0)
    Format: MPEG Video
    Format version: Version 2
    Format profile: Main@Main
    Format settings, BVOP: Yes
    Format settings, Matrix: Custom
    Duration: 17mn 15s
    Bit rate mode: Variable
    Bit rate: 7 939 Kbps
    Maximum bit rate: 9 800 Kbps
    Width: 720 pixels
    Height: 480 pixels
    Display aspect ratio: 4:3
    Frame rate: 29.970 fps
    Standard: NTSC
    Color space: YUV
    Chroma subsampling: 4:2:0
    Bit depth: 8 bits
    Scan type: Interlaced
    Scan order: Top Field First
    Compression mode: Lossy
    Bits/(Pixel*Frame): 0.767
    Stream size: 980 MiB (96%)

    Audio
    ID: 189 (0xBD)-128 (0x80)
    Format: AC-3
    Format/Info: Audio Coding 3
    Mode extension: CM (complete main)
    Muxing mode: DVD-Video
    Duration: 17mn 15s
    Bit rate mode: Constant
    Bit rate: 192 Kbps
    Channel(s): 2 channels
    Channel positions: Front: L R
    Sampling rate: 48.0 KHz
    Bit depth: 16 bits
    Compression mode: Lossy
    Stream size: 23.7 MiB (2%)



    DELKA 82
    ROK 1964
    ZANR Dobrodružný / Komedie / Historický / Fantasy
    JAZYK CZ
    TITULKY NE
    MENU A BONUSY NE,NE
    CSFD BLAZNOVA KRONIKA


    POPIS
    Vizuálně experimentující film, prolínající dávné rytiny do filmového obrazu, zasadil Karel Zeman do vichrů třicetileté války. Protagonisty učinil čerstvého odvedence a jeho na válečných polích zkušenějšího kamaráda, kteří pak spolu táhnou do dalších bojů i milostných dobrodružství. Dva kamarádi táhnou společně po bojištích třicetileté války. Píše se rok 1625. Oráče Petra odvedli k vojsku přímo od jeho pluhu. Matěj byl už značně ostřílený voják... Náhoda ty dva spojila, a tak společně táhnou slavnými i těmi zapomenutými bojišti
    třicetileté války v osobitém...
    MEDIA INFO
    BLAZNOVA KRONIKAGeneral
    Complete name: Cocuments and SettingsjirkaDokumentykompletni kolekce karla zemana dvd kolekcelaznova kronikaVTS_01_1.VOB
    Format: MPEG-PS
    File size: 1 024 MiB
    Duration: 25mn 23s
    Overall bit rate: 5 639 Kbps

    Video
    ID: 224 (0xE0)
    Format: MPEG Video
    Format version: Version 2
    Format profile: Main@Main
    Format settings, BVOP: Yes
    Format settings, Matrix: Custom
    Duration: 25mn 23s
    Bit rate mode: Variable
    Bit rate: 5 334 Kbps
    Maximum bit rate: 9 800 Kbps
    Width: 720 pixels
    Height: 480 pixels
    Display aspect ratio: 16:9
    Frame rate: 29.970 fps
    Standard: NTSC
    Color space: YUV
    Chroma subsampling: 4:2:0
    Bit depth: 8 bits
    Scan type: Interlaced
    Scan order: Top Field First
    Compression mode: Lossy
    Bits/(Pixel*Frame): 0.515
    Stream size: 969 MiB (95%)

    Audio
    ID: 189 (0xBD)-128 (0x80)
    Format: AC-3
    Format/Info: Audio Coding 3
    Mode extension: CM (complete main)
    Muxing mode: DVD-Video
    Duration: 25mn 23s
    Bit rate mode: Constant
    Bit rate: 192 Kbps
    Channel(s): 2 channels
    Channel positions: Front: L R
    Sampling rate: 48.0 KHz
    Bit depth: 16 bits
    Compression mode: Lossy
    Stream size: 34.9 MiB (3%)



    DELKA 74 MINUT
    ROK 1970
    ZANR Dobrodružný / Sci-Fi / Fantasy
    JAZYK CZ
    TITULKY NE
    MENU A BONUSY NE,NE
    CSFD NA KOMETE
    POPIS
    Poslední z trikových hraných filmů Karla Zemana, které vizuálně vycházely ze starobylých rytin provázejících romány Julese Verna. Tentokrát příběh začíná na zapadlém místě kterési francouzské kolonie, které od zemského povrchu odloupla obrovská kometa a vyvrhla do vesmíru. Ale i tam pokračují malicherné spory, řevnivost i přípravy k povstání... Režisér tu dospěl k výrazné komediální nadsázce, ke karikatuře nejrůznějších úředníků a vojáků, když již odmítal řešit jakékoli "nadčasové" záležitosti. Je to poslední film, v jehož titulcích směl být jako scenáris...
    MEDIA INFO
    NA KOMETEGeneral
    Complete name: Cocuments and SettingsjirkaDokumentykompletni kolekce karla zemana dvd kolekce
    a kometeVTS_01_1.VOB
    Format: MPEG-PS
    File size: 1 024 MiB
    Duration: 20mn 1s
    Overall bit rate: 7 149 Kbps
    Writing library: Created by Nero

    Video
    ID: 224 (0xE0)
    Format: MPEG Video
    Format version: Version 2
    Format profile: Main@Main
    Format settings, BVOP: Yes
    Format settings, Matrix: Custom
    Format settings, GOP: M=3, N=15
    Duration: 20mn 1s
    Bit rate mode: Variable
    Bit rate: 6 814 Kbps
    Maximum bit rate: 9 641 Kbps
    Width: 704 pixels
    Height: 576 pixels
    Display aspect ratio: 16:9
    Frame rate: 25.000 fps
    Standard: PAL
    Color space: YUV
    Chroma subsampling: 4:2:0
    Bit depth: 8 bits
    Scan type: Progressive
    Scan order: Bottom Field First
    Compression mode: Lossy
    Bits/(Pixel*Frame): 0.672
    Stream size: 976 MiB (95%)
    Writing library: Created by Nero

    Audio
    ID: 189 (0xBD)-128 (0x80)
    Format: AC-3
    Format/Info: Audio Coding 3
    Mode extension: CM (complete main)
    Muxing mode: DVD-Video
    Duration: 20mn 1s
    Bit rate mode: Constant
    Bit rate: 192 Kbps
    Channel(s): 2 channels
    Channel positions: Front: L R
    Sampling rate: 48.0 KHz
    Bit depth: 16 bits
    Compression mode: Lossy
    Delay relative to video: -40ms
    Stream size: 27.5 MiB (3%)


    ONLINE











    hrubmi, vaclav78, Elpone, Charlesp, krabat, karelslansko, fronsak,

    + Pridaj vlastnu verziu tohto torrentu +


    Upozornenie:
    Ziadny zo zobrazených súborov sa nenachádza na tomto serveri. Server slúzi len k síreniu vlastnorucne vytvorených aplikácií, videí, hudby ai. Autori stránok nenesú ziadnu zodpovednost za zverejnené odkazy, komentáre a obsah súborov. Vsetky komentáre, odkazy, súbory ktoré by svojou povahou mohli byt v rozpore zo zákonmi sem vkladáte na vlastnú zodpovednost. Autori stránok si vyhradzujú právo cenzúry odkazov, komentárov príp. súborov, ktoré by svojou povahou mohli byt v rozpore zo zákonmi a dobrými mravmi. Dodrzujte pravidlá!





    0
    miki1510
    Ratio 0.32

    Clen

    01/01/2017 21.04.11
    Děkuji

    0
    mimu
    Ratio 9.57

    VIP

    20/03/2014 12.26.29
    no krása-veľké DÍK!!!


    Back

    Na serveru se nenalézají zádne soubory. Za odkazy jsou výhradně zodpovědní uzivatelé a návstěvníci tohoto trackeru. Administrátor není zodpovědný za pridaný obsah ani za skody zpusobené uzivateli. Rozsirovat stránku nebo její obsah bez souhlasu ownera je zakázano. Nesmíte pouzívat tuto webovou stránku pro distribuovaní nebo download zádného materiálu pokud nemáte povolení od príslusného vlastníka práv. Uzivatelé jsou zodpovědní za dodrzování těchto pravidel a podmínek. Owner má právo kdykoliv změnit pravidla tohoto trackeru.

    [ Script trval: 0.035 sec. ] - [ GZIP: enabled ]
    Je zhruba 03:56
    sql

    TOPlist