Tvoj účet nieje VIP.
Preto sú tvoje funkcie a možnosti značne obmedzené.
Pre aktiváciu VIP klikni sem.

Komi neumi komunikovat / Komi-san wa Komyushou desu - 1. serie (2021)(JP+CZtit.)[1080p][HEVC] = CSFD 81% | SkTorrent.eu

Cz-SkTorrent open Tracker, na volné zdielanie súborov. Pridajte sa k nasej komunite a získajte pristup k tisícom torrentov.

  • vysoká rýchlost
  • úplne zdarma
  • prevazne Slovenska a Ceska scena
  • ste tu s nami uz 5 rokov - Dakujeme
  • Vitaj Guest (Login) Ako stahovat
    torrenty?
    Torrenty:
    v1 textová
    v2 obrázková
    v3 online filmy
    Ako sa stat
    Uploaderom
    Online
    Filmy
    Forum
    Pravidlá
    BitTorrent
    klient
    Meno: Heslo:
    Zaregistrovat
    Po zaregistrovaní mozte volne stahovat
    Zabudol som heslo

    Torrent's details
    Komi neumi komunikovat / Komi-san wa Komyushou desu - 1. serie (2021)(JP+CZtit.)[1080p][HEVC] = CSFD 81% Názov:Komi neumi komunikovat / Komi-san wa Komyushou desu - 1. serie (2021)(JP+CZtit.)[1080p][HEVC] = CSFD 81% Hodnocení:N/A Stiahnut
    Pozriet Online
    Kategória:Seriál Velikost:5.0 GB BitTorrent klient
    Pridaný: Súbory:
    Skontrolován:2022-01-10 Peerov:8 (Seed: 8, Leech: 0)
    Zaner:Animovany,Drama,Komedie,Romanticky Uploader:Uvidis, az ked budes
    VIP
    Kúp nám Pivo 1,10€

    Kúp nám Pivo
    Podporte nas na Facebooku !
    Pridaj do zalozky
    Pridaj do zalozky




    Komi neumí komunikovat / Komi-san wa, Komyushou desu. - 1. serie (2021) = CSFD 81%



           

    Jazyk: japonský
    Titulky: české, anglické
    Zdroj českých tituliek: teamnshonyaku.cz - Team NShonyaku
    Žáner: Animovaný / Dráma / Komédia / Romantický
    Témy: Anime, Komedie, Podle mangy, Školní život, Šónen, Ze života
    Japonsko, 2021, 12x24 min

    Režie: Ajumu Watanabe, Takahiro Tanaka, Naoki Murata, Akinori Fudesaka,...
    Předloha: Tomohito Oda (komiks)
    Scénář: Deko Akao
    Kamera:Satoši Namiki
    Hudba: Jukari Hašimoto
    Dabing: Aoi Koga, Gakuto Kajiwar, Rie Murakaw, Junya Enok, Yurika Moriyama, Rumi Okubo, Ruriko Aoki, Maaya Uchida, Yukiyo Fujii, Kikuko Inoue,...

    Popis
    Komi Shouko je na prestižní soukromé střední škole Itan první den a hned je považována za školní madonu. Díky dlouhým černým vlasům, vysoké postavě a půvabnému vzhledu upoutá pozornost každého, kdo se s ní setká. I tak má ale problém - absolutně nedokáže s nikým komunikovat. Hitohito Tadano je průměrný středoškolák. Jeho životním mottem je "dobře zapadnout a vyhýbat se problémům", ale rychle zjistí, že když sedí vedle Shouko, je nepřítelem všech ve třídě! Jednoho dne Hitohita, který nechtěně usnul, probudí Shoučina mňoukání. Předstírá, že nic neslyšel a Shouko uteče. Než však, Hitohitovi dojde, že se Shouko s ostatními nedokáže snadno domluvit - ve skutečnosti si nedokázala najít ani jediného kamaráda. Hitohito se rozhodne pomoct Shouko s jejím cílem najít si sto přátel, aby mohla překonat svou poruchu komunikace.





       

    Hlavní
    Format: Matroska
    Format version: Version 4
    File size: 434 MiB
    Duration: 24 min 8 s
    Overall bit rate: 2 514 kb/s
    Encoded date: UTC 2022-01-10 15:18:05
    Writing application: mkvmerge v63.0.0 ('Everything') 64-bit
    Writing library: libebml v1.4.2 + libmatroska v1.6.4 / Lavf57.83.100
    Attachments: Roboto-Medium.ttf / Roboto-MediumItalic.ttf

    Video
    Format: HEVC
    Format/Info: High Efficiency Video CodingFormat profile                          
    Codec ID: V_MPEGH/ISO/HEVC
    Duration: 24 min 8 s
    Bit rate: 2 379 kb/s
    Width: 1 920 pixels
    Height: 1 080 pixels
    Display aspect ratio: 16:9
    Frame rate mode: Constant
    Frame rate: 23.976 (23976/1000) FPS
    Original frame rate: 23.976 (24000/1001) FPS
    Color space: YUV
    Chroma subsampling: 4:2:0
    Bit depth: 8 bits
    Bits/(Pixel*Frame): 0.048
    Stream size: 411 MiB (95%)
    Writing library: Lavc57.107.100 hevc_nvenc
    Default: Yes
    Forced: No

    Audio
    Format: E-AC-3
    Format/Info: Enhanced AC-3
    Commercial name: Dolby Digital Plus
    Codec ID: A_EAC3
    Duration: 24 min 8 s
    Bit rate mode: Constant
    Bit rate: 128 kb/s
    Channel(s): 2 channels
    Channel layout: L R
    Sampling rate: 48.0 kHz
    Frame rate: 31.250 FPS (1536 SPF)
    Bit depth: 32 bits
    Compression mode: Lossy
    Stream size: 22.1 MiB (5%)
    Language: Japanese
    Service kind: Complete Main
    Default: Yes
    Forced: No

    Text #1
    Format: ASS
    Codec ID: S_TEXT/ASS
    Codec ID/Info: Advanced Sub Station Alpha
    Duration: 23 min 50 s
    Bit rate: 167 b/s
    Count of elements: 375
    Compression mode: Lossless
    Stream size: 29.3 KiB (0%)
    Language: Czech
    Default: Yes
    Forced: No

    Text #2
    Format: ASS
    Codec ID: S_TEXT/ASS
    Codec ID/Info: Advanced Sub Station Alpha
    Duration: 23 min 49 s
    Bit rate: 78 b/s
    Count of elements: 312
    Compression mode: Lossless
    Stream size: 13.6 KiB (0%)
    Title: English
    Language: English
    Default: No
    Forced: No


    Pre lepšie vyhľadávanie anime na webe SKT si nastavte vo vyhľadávaní kategóriu Animovany








    martinjc, Jablonka, pohee,

    + Pridaj vlastnu verziu tohto torrentu +


    Upozornenie:
    Ziadny zo zobrazených súborov sa nenachádza na tomto serveri. Server slúzi len k síreniu vlastnorucne vytvorených aplikácií, videí, hudby ai. Autori stránok nenesú ziadnu zodpovednost za zverejnené odkazy, komentáre a obsah súborov. Vsetky komentáre, odkazy, súbory ktoré by svojou povahou mohli byt v rozpore zo zákonmi sem vkladáte na vlastnú zodpovednost. Autori stránok si vyhradzujú právo cenzúry odkazov, komentárov príp. súborov, ktoré by svojou povahou mohli byt v rozpore zo zákonmi a dobrými mravmi. Dodrzujte pravidlá!




    Uploader
    10/01/2022 17.16.55
    Netflix potvrdil prácu na 2. sérií Komi neumí komunikovat / Komi-san wa, Komyushou desu.

    Novinky ohľadom anime pozorne sledujem. Novú sériu pridám až kým budú dostupné všetky diely s českými alebo slovenskými titulkami.

    1
    Nhadagh
    Ratio 155.06

    Member+

    10/01/2022 17.00.39
    jeyah.. konečně.. tohle vůbec neznám.. díkes upe


    Back

    Na serveru se nenalézají zádne soubory. Za odkazy jsou výhradně zodpovědní uzivatelé a návstěvníci tohoto trackeru. Administrátor není zodpovědný za pridaný obsah ani za skody zpusobené uzivateli. Rozsirovat stránku nebo její obsah bez souhlasu ownera je zakázano. Nesmíte pouzívat tuto webovou stránku pro distribuovaní nebo download zádného materiálu pokud nemáte povolení od príslusného vlastníka práv. Uzivatelé jsou zodpovědní za dodrzování těchto pravidel a podmínek. Owner má právo kdykoliv změnit pravidla tohoto trackeru.

    [ Script trval: 0.025 sec. ] - [ GZIP: enabled ]
    Je zhruba 17:49
    sql

    TOPlist