Tvoj účet nieje VIP.
Preto sú tvoje funkcie a možnosti značne obmedzené.
Pre aktiváciu VIP klikni sem.

KonoSuba Legend Of Crimson / Kono subarashii sekai ni shukufuku wo! Kurenai densetsu (2019)(JP/EN+CZtit.)[1080p][HEVC] = CSFD 83% | SkTorrent.eu

Cz-SkTorrent open Tracker, na volné zdielanie súborov. Pridajte sa k nasej komunite a získajte pristup k tisícom torrentov.

  • vysoká rýchlost
  • úplne zdarma
  • prevazne Slovenska a Ceska scena
  • ste tu s nami uz 5 rokov - Dakujeme
  • Vitaj Guest (Login) Ako stahovat
    torrenty?
    Torrenty:
    v1 textová
    v2 obrázková
    v3 online filmy
    Ako sa stat
    Uploaderom
    Online
    Filmy
    Forum
    Pravidlá
    BitTorrent
    klient
    Meno: Heslo:
    Zaregistrovat
    Po zaregistrovaní mozte volne stahovat
    Zabudol som heslo

    Torrent's details
    KonoSuba Legend Of Crimson / Kono subarashii sekai ni shukufuku wo! Kurenai densetsu (2019)(JP/EN+CZtit.)[1080p][HEVC] = CSFD 83% Názov:KonoSuba Legend Of Crimson / Kono subarashii sekai ni shukufuku wo! Kurenai densetsu (2019)(JP/EN+CZtit.)[1080p][HEVC] = CSFD 83% Hodnocení:N/A Stiahnut
    Pozriet Online
    Kategória:Filmy Kreslené Velikost:2.3 GB BitTorrent klient
    Pridaný: Súbory:
    Skontrolován:2021-07-05 Peerov:7 (Seed: 7, Leech: 0)
    Zaner:Animovany,Dobrodruzny,Fantasy,Komedie Uploader:Uvidis, az ked budes
    VIP
    Kúp nám Pivo 1,10€

    Kúp nám Pivo
    Podporte nas na Facebooku !
    Pridaj do zalozky
    Pridaj do zalozky




    KonoSuba: Legend of Crimson (2019)

    Kono subarashii sekai ni shukufuku wo! Kurenai densetsu



         

    Jazyk: japonský, anglický
    Titulky: anglické, české
    Žáner: Animovaný / Dobrodružný / Fantasy / Komedie
    Témy: Isekai / Deity / Magia / Superschopnosti / Parodie
    Japonsko, 2019, 95 min

    Réžia: Takaomi Kanasaki
    Predloha: Nacume Akacuki (komiks)
    Scénar: Makoto Uezu
    Hrajú: Ai Kajano, Džun Fukušima, Rie Takahaši, Sora Amamija, Aki Tojosaki, Ajaka Suwa, Jui Horie, Maria Naganawa, Tecu Inada, Jošiki Nakadžima...

    Popis
    Ve filmovém KonoSuba a KonoSuba 2 se opět vrací Kazuma Satō a jeho parta. Tentokrát jsou vyplašeni dopisem od Yunyun, ve kterém se píše, že se mají dostavit do vesnice klanu Karmínových Démonů. Banda se tam rozhodne jít a využijí tam trochu času, který jim zbyl, ale potíže začnou vznikat poté, co se objeví nepřátelský generál!

    Predtím, než začnete, pozrite si:
    1. KonoSuba = 1. serie
    2. KonoSuba = 2. serie






       

    Hlavní
    Formát: Matroska
    Format version: Version 4
    Velikost souboru: 2,32 GiB
    Duration: 1 h 29 min
    Celkový BitRate: 3 688 kb/s
    Encoded date: UTC 2021-07-05 06:03:45
    Použitý software: mkvmerge v58.0.0 ('Supper's Ready') 64-bit
    Enkódoval: libebml v1.4.2 + libmatroska v1.6.4 / Lavf58.29.100

    Video
    Formát: HEVC
    Formát/Info: High Efficiency Video Coding
    Format profile: Main 10@L5@Main
    Codec ID: V_MPEGH/ISO/HEVC
    Duration: 1 h 29 min
    Bit rate: 3 199 kb/s
    Šířka: 1 920pixely
    Výška: 1 080pixely
    Poměr stran: 16:9
    Frame rate mode: Constant
    Frame rate: 23,976 (24000/1001) FPS
    Color space: YUV
    Chroma subsampling: 4:2:0
    Bit depth: 10 bits
    Bits/(Pixel*Frame): 0.064
    Stream size: 2,01 GiB (87%)
    Titul: Tenrai-Sensei | 20 CRF VerySlow
    Enkódoval: x265 3.2.1+1-b5c86a64bbbe:[Windows][GCC 8.3.0][64 bit] 10bit
    Default: Ano
    Forced: Ne
    Color range: Limited
    Color primaries: BT.709
    Transfer characteristics: BT.709
    Matrix coefficients: BT.709

    Audio #1
    Formát: AAC LC
    Formát/Info: Advanced Audio Codec Low Complexity
    Codec ID: A_AAC-2
    Duration: 1 h 29 min
    Bit rate: 128 kb/s
    Kanál(y): 2 kanály
    Channel layout: L R
    Sampling rate: 44,1 kHz
    Frame rate: 43,066 FPS (1024 SPF)
    Compression mode: Lossy
    Video delay: 993 ms
    Stream size: 82,4 MiB (3%)
    Jazyk: English
    Default: Ne
    Forced: Ne

    Audio #2
    Formát: Opus
    Codec ID: A_OPUS
    Duration: 1 h 29 min
    Bit rate: 357 kb/s
    Kanál(y): 6 kanály
    Channel layout: L R C Lb Rb LFE
    Sampling rate: 48,0 kHz
    Frame rate: 50,000 FPS (960 SPF)
    Compression mode: Lossy
    Video delay: -7 ms
    Stream size: 229 MiB (10%)
    Jazyk: Japanese
    Default: Ano
    Forced: Ne

    Text #1
    Formát: ASS
    Codec ID: S_TEXT/ASS
    Codec ID/Info: Advanced Sub Station Alpha
    Duration: 53 min 29 s
    Bit rate: 8 b/s
    Count of elements: 38
    Compression mode: Lossless
    Stream size: 3,37 KiB (0%)
    Titul: S&S
    Jazyk: English
    Default: Ano
    Forced: Ne

    Text #2
    Formát: UTF-8
    Codec ID: S_TEXT/UTF8
    Codec ID/Info: UTF-8 Plain Text
    Duration: 1 h 25 min
    Bit rate: 86 b/s
    Count of elements: 1468
    Stream size: 54,6 KiB (0%)
    Titul: Full Subs
    Jazyk: English
    Default: Ne
    Forced: Ne

    Text #3
    Formát: ASS
    Codec ID: S_TEXT/ASS
    Codec ID/Info: Advanced Sub Station Alpha
    Duration: 1 h 25 min
    Bit rate: 167 b/s
    Count of elements: 1468
    Compression mode: Lossless
    Stream size: 105 KiB (0%)
    Titul: Crunchyroll Subs
    Jazyk: English
    Default: Ne
    Forced: Ne

    Text #4
    Formát: ASS
    Codec ID: S_TEXT/ASS
    Codec ID/Info: Advanced Sub Station Alpha
    Duration: 1 h 25 min
    Bit rate: 157 b/s
    Count of elements: 1468
    Compression mode: Lossless
    Stream size: 99,1 KiB (0%)
    Titul: Dialog - ENG
    Jazyk: English
    Default: Ne
    Forced: Ano









    Nhadagh, Jablonka, Jano23,

    + Pridaj vlastnu verziu tohto torrentu +


    Upozornenie:
    Ziadny zo zobrazených súborov sa nenachádza na tomto serveri. Server slúzi len k síreniu vlastnorucne vytvorených aplikácií, videí, hudby ai. Autori stránok nenesú ziadnu zodpovednost za zverejnené odkazy, komentáre a obsah súborov. Vsetky komentáre, odkazy, súbory ktoré by svojou povahou mohli byt v rozpore zo zákonmi sem vkladáte na vlastnú zodpovednost. Autori stránok si vyhradzujú právo cenzúry odkazov, komentárov príp. súborov, ktoré by svojou povahou mohli byt v rozpore zo zákonmi a dobrými mravmi. Dodrzujte pravidlá!




    Uploader
    05/07/2021 08.57.17
    V ako poradí sledovať KonoSuba

    1. KonoSuba = 1. serie
    2. KonoSuba = 2. serie
    3. KonoSuba: Legend of Crimson / Kurenai Densetsu

    Ak vyjde nová séria/film, budem vás o tom informovať.


    Back

    Na serveru se nenalézají zádne soubory. Za odkazy jsou výhradně zodpovědní uzivatelé a návstěvníci tohoto trackeru. Administrátor není zodpovědný za pridaný obsah ani za skody zpusobené uzivateli. Rozsirovat stránku nebo její obsah bez souhlasu ownera je zakázano. Nesmíte pouzívat tuto webovou stránku pro distribuovaní nebo download zádného materiálu pokud nemáte povolení od príslusného vlastníka práv. Uzivatelé jsou zodpovědní za dodrzování těchto pravidel a podmínek. Owner má právo kdykoliv změnit pravidla tohoto trackeru.

    [ Script trval: 0.032 sec. ] - [ GZIP: enabled ]
    Je zhruba 15:10

    TOPlist