Tvoj účet nieje VIP.
Preto sú tvoje funkcie a možnosti značne obmedzené.
Pre aktiváciu VIP klikni sem.

Kosí bratři (1980)(CZ) = CSFD 66% | SkTorrent.eu

Cz-SkTorrent open Tracker, na volné zdieľanie súborov. Pridajte sa k našej komunite a získajte prístup k tisícom torrentov.

  • vysoká rýchlosť
  • úplne zdarma
  • prevažne Slovenská a Česká scéna
  • ste tu s nami už 10 rokov - Ďakujeme
  • Vitaj Guest (Login) Ako stahovat
    torrenty?
    Torrenty:
    v1 textová
    v2 obrázková
    Ako sa stat
    Uploaderom
    Online
    Filmy
    Forum
    Pravidlá
    SkTSocial
    BitTorrent
    klient
    Meno: Heslo:
    Zaregistrovat
    Po zaregistrovaní mozte volne stahovat
    Zabudol som heslo

    Kosí bratři (1980)(CZ) = CSFD 66% Názov:Kosí bratři (1980)(CZ) = CSFD 66% Hodnocení:N/A Stiahnut
    Pozriet Online
    Kategória:Seriál - Velikost:1.2 GB BitTorrent klient
    Pridaný: Súbory:
    Skontrolován:2024-06-27 Peerov:26 (Seed: 26, Leech: 0)
    Zaner:Animovany,Rodinny Uploader:Uvidis, az ked budes
    VIP
    Kúp nám Pivo 1,10€

    Kúp nám Pivo

    Pridaj do zalozky
    Pridaj do zalozky




    Josef a Václav, tak se ti dva kamarádi jmenují. Nejsou to kluci, jak by se na první pohled zdálo, ale dva povedení ptáci kosáci – prostě kosí bratři. Oba dva spolu zažívají spoustu dobrodružství – vydají se na pouť, s krtkem se pustí do stavby metra, vydají se do ZOO, a dokonce vykonají i dobrý skutek.

    Hlavní
    Celý název a cesta                       : C:\Users\Tomáš\Downloads\Kosí bratři\1. Jak to bylo na pouti_640x494.mp4
    Formát                                   : MPEG-4
    Format profile                           : Base Media
    Codec ID                                 : isom (isom/iso2/avc1/mp41)
    Velikost souboru                         : 90,7 MiB
    Duration                                 : 6 min 31 s
    Overall bit rate mode                    : Variable
    Celkový BitRate                          : 1 946 kb/s
    Frame rate                               : 100,000 FPS
    Encoded date                             : 2016-12-05 22:02:20 UTC
    Tagged date                              : 2016-12-05 22:02:20 UTC
    Použitý software                         : Lavf60.3.100

    Video
    ID                                       : 1
    Formát                                   : AVC
    Formát/Info                              : Advanced Video Codec
    Format profile                           : Constrained Baseline@L3.2
    Format settings                          : 3 Ref Frames
    Format settings, CABAC                   : Ne
    Format settings, Reference frames        : 3 frames
    Format settings, GOP                     : M=1, N=30
    Codec ID                                 : avc1
    Codec ID/Info                            : Advanced Video Coding
    Duration                                 : 6 min 31 s
    Bit rate mode                            : Variable
    Bit rate                                 : 7 369 kb/s
    Maximum bit rate                         : 16,0 Mb/s
    Šířka                                    : 640pixely
    Výška                                    : 494pixely
    Poměr stran                              : 1,298
    Original display aspect ratio            : 1,299
    Frame rate                               : 100,000 FPS
    Color space                              : YUV
    Chroma subsampling                       : 4:2:0
    Bit depth                                : 8 bits
    Scan type                                : Progressive
    Bits/(Pixel*Frame)                       : 0.233
    Stream size                              : 85,9 MiB (95%)
    Encoded date                             : 2016-12-05 22:02:20 UTC
    Tagged date                              : 2016-12-05 22:02:20 UTC
    Codec configuration box                  : avcC

    Audio
    ID                                       : 2
    Formát                                   : AAC LC
    Formát/Info                              : Advanced Audio Codec Low Complexity
    Codec ID                                 : mp4a-40-2
    Duration                                 : 6 min 31 s
    Bit rate mode                            : Constant
    Bit rate                                 : 96,0 kb/s
    Kanál(y)                                 : 2 kanály
    Channel layout                           : L R
    Sampling rate                            : 44,1 kHz
    Frame rate                               : 43,066 FPS (1024 SPF)
    Compression mode                         : Lossy
    Stream size                              : 4,49 MiB (5%)
    Titul                                    : Stereo
    Default                                  : Ano
    Alternate group                          : 1
    Encoded date                             : 2016-12-05 22:02:20 UTC
    Tagged date                              : 2016-12-05 22:02:20 UTC


    https://www.youtube.com/watch?v=lO5kM-iJk9k

    https://www.csfd.cz/film/158493-kosi-bratri/prehled/
     








    matrix0007, Kim6, Carter83, pohee, Trip77, Adnay, pjzpisku, skarpa, unknownbob, MartinZetek, pelines, BERUJIZEZADU,

    + Pridaj vlastnu verziu tohto torrentu +


    Upozornenie:
    Ziadny zo zobrazených súborov sa nenachádza na tomto serveri. Server slúzi len k síreniu vlastnorucne vytvorených aplikácií, videí, hudby ai. Autori stránok nenesú ziadnu zodpovednost za zverejnené odkazy, komentáre a obsah súborov. Vsetky komentáre, odkazy, súbory ktoré by svojou povahou mohli byt v rozpore zo zákonmi sem vkladáte na vlastnú zodpovednost. Autori stránok si vyhradzujú právo cenzúry odkazov, komentárov príp. súborov, ktoré by svojou povahou mohli byt v rozpore zo zákonmi a dobrými mravmi. Dodrzujte pravidlá!


    No comments...


    Back

    Na serveru se nenalézají zádne soubory. Za odkazy jsou výhradně zodpovědní uzivatelé a návstěvníci tohoto trackeru. Administrátor není zodpovědný za pridaný obsah ani za skody zpusobené uzivateli. Nesmíte pouzívat tuto webovou stránku pro distribuovaní nebo download zádného materiálu pokud nemáte povolení od príslusného vlastníka práv. Uzivatelé jsou zodpovědní za dodrzování těchto pravidel a podmínek. Owner má právo kdykoliv změnit pravidla tohoto trackeru.

    [ Script trval: 0.012 sec. ] - [ GZIP: enabled ]
    Je zhruba 15:06
    sql

    TOPlist