Tvoj účet nieje VIP.
Preto sú tvoje funkcie a možnosti značne obmedzené.
Pre aktiváciu VIP klikni sem.

Koupili jsme zoo / We Bought a Zoo (2011)(CZ) = CSFD 76% | SkTorrent.eu

Cz-SkTorrent open Tracker, na volné zdielanie súborov. Pridajte sa k nasej komunite a získajte pristup k tisícom torrentov.

  • vysoká rýchlost
  • úplne zdarma
  • prevazne Slovenska a Ceska scena
  • ste tu s nami uz 5 rokov - Dakujeme
  • Vitaj Guest (Login) Ako stahovat
    torrenty?
    Torrenty:
    v1 textová
    v2 obrázková
    v3 online filmy
    Ako sa stat
    Uploaderom
    Online
    Filmy
    Forum
    Pravidlá
    BitTorrent
    klient
    Meno: Heslo:
    Zaregistrovat
    Po zaregistrovaní mozte volne stahovat
    Zabudol som heslo

    Torrent's details
    Koupili jsme zoo / We Bought a Zoo (2011)(CZ) = CSFD 76% Názov:Koupili jsme zoo / We Bought a Zoo (2011)(CZ) = CSFD 76% Hodnocení: Stiahnut
    Pozriet Online
    Kategória:Filmy CZ/SK dabing Velikost:706.2 MB BitTorrent klient
    Pridaný: Súbory:
    Skontrolován:2014-08-06 Peerov:1 (Seed: 1, Leech: 0)
    Zaner:Drama,Komedie,Rodinny Uploader:Uvidis, az ked budes
    VIP
    Kúp nám Pivo 1,10€

    Kúp nám Pivo
    Podporte nas na Facebooku !
    Pridaj do zalozky
    Pridaj do zalozky




    Název Filmu: Koupili jsme zoo


    Rok vydání: 2011
    Jazyk: CZ
    Titulky: Ne
    Délka: 2 h. 3 min.
    Zdroj videa: AbSurdiTy encode
    Kvalita: 2.0 CZ | 128 Kbps | 624 x 336 | 797 Kbps | 16 : 9
    Odkaz na CSFD: http://www.csfd.cz/film/286858-koupili-jsme-zoo/
    Žánr: Komedie / Drama / Rodinný


    Režie:
    Cameron Crowe

    Hudba:
    Jon Thor Birgisson

    Hrají:
    (Matt Damon - ), (Scarlett Johansson - ), Thomas Haden Church, Colin Ford, Maggie Elizabeth Jones, Angus Macfadyen, Elle Fanning, Patrick Fugit, John Michael Higgins, Carla Gallo, Stephanie Szostak, Kym Whitley, Peter Riegert, Desi Lydic, Benjamin Mee, Lily Rains

    Popis:
    Benjamin Mee (M.Damon) je losangeleský autor novinových sloupků a příležitostný spisovatel dobrodružné literatury, který jako svobodný otec čelí problémům souvisejícím s výchovou dvou dětí. Ve víře, že nový začátek a nový start pomůže obnovit pocity rodinné sounáležitosti, rozhodne se Mee opustit svoji práci a koupit starý venkovský dům s ohromnými pozemky a jedním speciálním bonusem – Rosemorskou zoologickou zahradou, kde žijí desítky zvířat, o které se stará chovatelka Kelly Foster ((Scarlett Johansson - )) a její oddaný tým. S absolutně nulovými zkušenostmi, omezeným časem a minimálními financemi se Mee s podporou své rodiny a místní party vydá na těžkou cestu k znovuotevření zoo. Teď už Benjamin o dobrodružném příběhu nepíše, teď jedno takové dobrodružství žije... a odehrává se přímo na jeho dvoře.

    Trailer:

    Screen:


    Media info:We.Bought.a.Zoo.2011.DVDRip.XviD.CZ-TiELK.avi
    Format: AVI
    Format/Info: Audio Video Interleave
    File size: 706 MiB
    Duration: 2h 3mn
    Overall bit rate: 797 Kbps
    Archival location: HiddenStatus.com
    Writing application: VirtualDubMod 1.5.10.2 (build 2540/release)
    Writing library: VirtualDubMod build 2540/release
    Copyright: By AbSurdiTy

    Video
    ID: 0
    Format: MPEG-4 Visual
    Format profile: Advanced Simple@L5
    Format settings, BVOP: 4
    Format settings, QPel: No
    Format settings, GMC: No warppoints
    Format settings, Matrix: Default (H.263)
    Muxing mode: Packed bitstream
    Codec ID: XVID
    Codec ID/Hint: XviD
    Duration: 2h 3mn
    Bit rate: 657 Kbps
    Width: 624 pixels
    Height: 336 pixels
    Display aspect ratio: 1.85:1
    Frame rate: 23.976 fps
    Color space: YUV
    Chroma subsampling: 4:2:0
    Bit depth: 8 bits
    Scan type: Progressive
    Compression mode: Lossy
    Bits/(Pixel*Frame): 0.131
    Stream size: 582 MiB (82%)
    Writing library: XviD 64

    Audio
    ID: 1
    Format: MPEG Audio
    Format version: Version 1
    Format profile: Layer 3
    Codec ID: 55
    Codec ID/Hint: MP3
    Duration: 2h 3mn
    Bit rate mode: Constant
    Bit rate: 128 Kbps
    Channel(s): 2 channels
    Sampling rate: 44.1 KHz
    Compression mode: Lossy
    Stream size: 113 MiB (16%)
    Alignment: Aligned on interleaves
    Interleave, duration: 26 ms (0.63 video frame)
    Interleave, preload duration: 522 ms
    Writing library: LAME3.99









    + Pridaj vlastnu verziu tohto torrentu +


    Upozornenie:
    Ziadny zo zobrazených súborov sa nenachádza na tomto serveri. Server slúzi len k síreniu vlastnorucne vytvorených aplikácií, videí, hudby ai. Autori stránok nenesú ziadnu zodpovednost za zverejnené odkazy, komentáre a obsah súborov. Vsetky komentáre, odkazy, súbory ktoré by svojou povahou mohli byt v rozpore zo zákonmi sem vkladáte na vlastnú zodpovednost. Autori stránok si vyhradzujú právo cenzúry odkazov, komentárov príp. súborov, ktoré by svojou povahou mohli byt v rozpore zo zákonmi a dobrými mravmi. Dodrzujte pravidlá!


    No comments...


    Back

    Na serveru se nenalézají zádne soubory. Za odkazy jsou výhradně zodpovědní uzivatelé a návstěvníci tohoto trackeru. Administrátor není zodpovědný za pridaný obsah ani za skody zpusobené uzivateli. Rozsirovat stránku nebo její obsah bez souhlasu ownera je zakázano. Nesmíte pouzívat tuto webovou stránku pro distribuovaní nebo download zádného materiálu pokud nemáte povolení od príslusného vlastníka práv. Uzivatelé jsou zodpovědní za dodrzování těchto pravidel a podmínek. Owner má právo kdykoliv změnit pravidla tohoto trackeru.

    [ Script trval: 0.034 sec. ] - [ GZIP: enabled ]
    BtiTracker (1.4.8) by Btiteam
    Je zhruba 01:17

    TOPlist