Tvoj účet nieje VIP.
Preto sú tvoje funkcie a možnosti značne obmedzené.
Pre aktiváciu VIP klikni sem.

Labyrint: Zkousky ohnem / Maze Runner: The Scorch Trials (2015)(CZ/EN)(2160p 4K BRRip) = CSFD 61% | SkTorrent.eu

Cz-SkTorrent open Tracker, na volné zdielanie súborov. Pridajte sa k nasej komunite a získajte pristup k tisícom torrentov.

  • vysoká rýchlost
  • úplne zdarma
  • prevazne Slovenska a Ceska scena
  • ste tu s nami uz 5 rokov - Dakujeme
  • Vitaj Guest (Login) Ako stahovat
    torrenty?
    Torrenty:
    v1 textová
    v2 obrázková
    v3 online filmy
    Ako sa stat
    Uploaderom
    Online
    Filmy
    Forum
    Pravidlá
    BitTorrent
    klient
    Meno: Heslo:
    Zaregistrovat
    Po zaregistrovaní mozte volne stahovat
    Zabudol som heslo

    Torrent's details
    Labyrint: Zkousky ohnem / Maze Runner: The Scorch Trials  (2015)(CZ/EN)(2160p 4K BRRip) = CSFD 61% Názov:Labyrint: Zkousky ohnem / Maze Runner: The Scorch Trials (2015)(CZ/EN)(2160p 4K BRRip) = CSFD 61% Hodnocení: Stiahnut
    Pozriet Online
    Kategória:UHD Filmy Velikost:46.7 GB BitTorrent klient
    Pridaný: Súbory:
    Skontrolován:2021-06-16 Peerov:8 (Seed: 8, Leech: 0)
    Zaner:Akcni,Sci-Fi,Thriller Uploader:Uvidis, az ked budes
    VIP
    Kúp nám Pivo 1,10€

    Kúp nám Pivo
    Podporte nas na Facebooku !
    Pridaj do zalozky
    Pridaj do zalozky






    Labyrint: Zkousky ohnem
    Maze Runner: The Scorch Trials
    (2015)(CZ/EN) = CSFD 61%

    2160p 4K HDR10 - HEVC – 50.7 Mb/s Bitrate verzia


    ... Na zelanie ...






    Video: 2160p 4K HDR10 - HEVC
    Jazyk: CZ 5.1 DD / EN 7.1 DTS HD / EN 5.1 DD
    Titulky: CZ Full + Forced / EN
    Akcni / Sci-Fi / Thriller
    USA 2015
    131 min

    Režie: Wes Ball
    Předloha: James Dashner (kniha)
    Scénář: T.S. Nowlin
    Kamera: Gyula Pados
    Hudba: John Paesano
    Hrají: Dylan O'Brien, Thomas Brodie-Sangster, Kaya Scodelario, Ki-hong Lee, Dexter Darden, Alexander Flores, Jacob Lofland, Rosa Salazar, Giancarlo Esposito, Aidan Gillen, Patricia Clarkson, Lili Taylor, Barry Pepper, J. Nathan Simmons, Alan Tudyk, Jenny Gabrielle, Lora Martinez-Cunningham, Matthew Page, Tatanka Means, Katherine McNamara, Nathalie Emmanuel, Bryce Romero, Keith Jardine, Gary Hood, McKenna Pippen, Luke Gallegos, Jetto Dorsainville, Terry Dale Parks, James Burnett, Matt Metzler, David House, Morse Bicknell, Alex Knight, Andrea Good, Brandon K. Hampton

    OBSAH

    Když Thomas a jeho kamarádi dokázali uniknout z vražedného labyrintu, doufali, že se dokážou vrátit ke svým starým životům. Nemohli se ale splést víc. Místo svobody je čekal pouhý postup do druhé fáze zkoušky připravené organizací Z.L.S.N. Pro Thomase a ostatní přeživší Placery z labyrintu tak běhání zdaleka nekončí. Jejich další útěk je zavede na Spáleniště, nejvíce sežehnutou část planety, krajinu plnou nepředstavitelných překážek. Sluneční erupce sežehly Zemi na popel a proměnily ji v pustinu. Světové vlády se zhroutily – a s nimi i řád a právo. Rozpadajícími se troskami měst teď bloudí takzvaní „raplové", lidé pokrytí hnisajícími ranami, které nakažlivý virus dohnal za hranu příčetnosti. Jejich jediným cílem je najít cokoliv živého, aby se nasytili. Thomas a jeho přátelé musí rychle najít bezpečné útočiště a organizace Z.L.S.N. se stará o hlavně to, aby jim šance na přežití nastavila v jejich neprospěch. Placeři se ale dokáží spojit s bojovníky odporu, zasáhnout vrchní velení Z.L.S.N. a odhalit tak další šokující plány, které si pro ně společnost přichystala. Thomase čeká tvrdá zkouška ohněm. Skutečně se někde uvnitř v jeho hlavě skrývá tajemství, které je zachrání?

    SCREEN



    TRAILER






    Hlavní
    Formát : Matroska
    Format version : Version 4
    Velikost souboru : 46,7 GiB
    Duration : 2 h 11 min
    Overall bit rate mode : Variable
    Celkový BitRate : 50,7 Mb/s
    Encoded date : UTC 2021-06-16 16:11:06
    Použitý software : mkvmerge v31.0.0 ('Dolores In A Shoestand') 64-bit
    Enkódoval : libebml v1.3.6 + libmatroska v1.4.9
    Obal : Yes
    Attachments : small_cover.jpg / small_cover_land.jpg / cover.jpg / cover_land.jpg

    Video
    ID : 1
    Formát : HEVC
    Formát/Info : High Efficiency Video Coding
    Format profile : Main 10@L5.1@High
    HDR format : SMPTE ST 2086, HDR10 compatible
    Codec ID : V_MPEGH/ISO/HEVC
    Duration : 2 h 11 min
    Bit rate : 44,7 Mb/s
    Šířka : 3 840pixely
    Výška : 2 160pixely
    Poměr stran : 16:9
    Frame rate mode : Constant
    Frame rate : 23,976 (24000/1001) FPS
    Color space : YUV
    Chroma subsampling : 4:2:0 (Type 2)
    Bit depth : 10 bits
    Bits/(Pixel*Frame) : 0.225
    Stream size : 41,2 GiB (88%)
    Default : Ano
    Forced : Ne
    Color range : Limited
    Color primaries : BT.2020
    Transfer characteristics : PQ
    Matrix coefficients : BT.2020 non-constant
    Mastering display color primaries : Display P3
    Mastering display luminance : min: 0.0000 cd/m2, max: 1100 cd/m2

    Audio #1
    ID : 2
    Formát : DTS ES XLL
    Formát/Info : Digital Theater Systems
    Commercial name : DTS-HD Master Audio
    Codec ID : A_DTS
    Duration : 2 h 11 min
    Bit rate mode : Variable
    Bit rate : 5 083 kb/s
    Kanál(y) : 8 kanály
    Channel layout : C L R Ls Rs LFE Lb Rb
    Sampling rate : 48,0 kHz
    Frame rate : 93,750 FPS (512 SPF)
    Bit depth : 24 bits
    Compression mode : Lossless
    Stream size : 4,68 GiB (10%)
    Jazyk : English
    Default : Ne
    Forced : Ne

    Audio #2
    ID : 3
    Formát : AC-3
    Formát/Info : Audio Coding 3
    Commercial name : Dolby Digital
    Codec ID : A_AC3
    Duration : 2 h 11 min
    Bit rate mode : Constant
    Bit rate : 448 kb/s
    Kanál(y) : 6 kanály
    Channel layout : L R C LFE Ls Rs
    Sampling rate : 48,0 kHz
    Frame rate : 31,250 FPS (1536 SPF)
    Compression mode : Lossy
    Video delay : 14 ms
    Stream size : 422 MiB (1%)
    Jazyk : English
    Service kind : Complete Main
    Default : Ne
    Forced : Ne

    Audio #3
    ID : 4
    Formát : AC-3
    Formát/Info : Audio Coding 3
    Commercial name : Dolby Digital
    Codec ID : A_AC3
    Duration : 2 h 11 min
    Bit rate mode : Constant
    Bit rate : 448 kb/s
    Kanál(y) : 6 kanály
    Channel layout : L R C LFE Ls Rs
    Sampling rate : 48,0 kHz
    Frame rate : 31,250 FPS (1536 SPF)
    Compression mode : Lossy
    Stream size : 422 MiB (1%)
    Jazyk : Czech
    Service kind : Complete Main
    Default : Ano
    Forced : Ano

    Text #1
    ID : 5
    Formát : UTF-8
    Codec ID : S_TEXT/UTF8
    Codec ID/Info : UTF-8 Plain Text
    Duration : 35 min 8 s
    Bit rate : 0 b/s
    Count of elements : 3
    Stream size : 56,0 Bytes (0%)
    Titul : forced
    Jazyk : Czech
    Default : Ano
    Forced : Ano

    Text #2
    ID : 6
    Formát : UTF-8
    Codec ID : S_TEXT/UTF8
    Codec ID/Info : UTF-8 Plain Text
    Duration : 2 h 10 min
    Bit rate : 31 b/s
    Count of elements : 1494
    Stream size : 30,3 KiB (0%)
    Jazyk : Czech
    Default : Ne
    Forced : Ne

    Menu #1
    00:00:00.000 : en:Chapter 1
    00:04:05.119 : en:Chapter 2
    00:05:59.817 : en:Chapter 3
    00:09:08.798 : en:Chapter 4
    00:11:55.840 : en:Chapter 5
    00:17:32.676 : en:Chapter 6
    00:23:21.191 : en:Chapter 7
    00:27:36.029 : en:Chapter 8
    00:33:10.238 : en:Chapter 9
    00:37:06.682 : en:Chapter 10
    00:41:30.988 : en:Chapter 11
    00:45:47.369 : en:Chapter 12
    00:51:57.781 : en:Chapter 13
    00:56:01.775 : en:Chapter 14
    01:00:56.319 : en:Chapter 15
    01:03:50.535 : en:Chapter 16
    01:07:29.253 : en:Chapter 17
    01:11:19.191 : en:Chapter 18
    01:15:32.819 : en:Chapter 19
    01:20:15.060 : en:Chapter 20
    01:27:47.470 : en:Chapter 21
    01:30:17.286 : en:Chapter 22
    01:34:04.013 : en:Chapter 23
    01:38:29.904 : en:Chapter 24
    01:40:52.546 : en:Chapter 25
    01:44:13.121 : en:Chapter 26
    01:51:51.871 : en:Chapter 27
    01:56:51.212 : en:Chapter 28
    02:01:02.713 : en:Chapter 29
    02:04:05.146 : en:Chapter 30

    Menu #2
    00:00:00.000 : en:00:00:00.000
    00:04:05.120 : en:00:04:05.120
    00:05:59.818 : en:00:05:59.818
    00:09:08.798 : en:00:09:08.798
    00:11:55.840 : en:00:11:55.840
    00:17:32.677 : en:00:17:32.677
    00:23:21.191 : en:00:23:21.191
    00:27:36.029 : en:00:27:36.029
    00:33:10.238 : en:00:33:10.238
    00:37:06.683 : en:00:37:06.683
    00:41:30.988 : en:00:41:30.988
    00:45:47.370 : en:00:45:47.370
    00:51:57.781 : en:00:51:57.781
    00:56:01.775 : en:00:56:01.775
    01:00:56.319 : en:01:00:56.319
    01:03:50.535 : en:01:03:50.535
    01:07:29.254 : en:01:07:29.254
    01:11:19.192 : en:01:11:19.192
    01:15:32.820 : en:01:15:32.820
    01:20:15.060 : en:01:20:15.060
    01:27:47.471 : en:01:27:47.471
    01:30:17.287 : en:01:30:17.287
    01:34:04.013 : en:01:34:04.013
    01:38:29.904 : en:01:38:29.904
    01:40:52.546 : en:01:40:52.546
    01:44:13.122 : en:01:44:13.122
    01:51:51.872 : en:01:51:51.872
    01:56:51.213 : en:01:56:51.213
    02:01:02.714 : en:02:01:02.714
    02:04:05.146 : en:02:04:05.146







    VDAKA ZA BODY a SEEDUJTE















    matkowic, melirko, vaclav78, MiBstarsk,

    + Pridaj vlastnu verziu tohto torrentu +


    Upozornenie:
    Ziadny zo zobrazených súborov sa nenachádza na tomto serveri. Server slúzi len k síreniu vlastnorucne vytvorených aplikácií, videí, hudby ai. Autori stránok nenesú ziadnu zodpovednost za zverejnené odkazy, komentáre a obsah súborov. Vsetky komentáre, odkazy, súbory ktoré by svojou povahou mohli byt v rozpore zo zákonmi sem vkladáte na vlastnú zodpovednost. Autori stránok si vyhradzujú právo cenzúry odkazov, komentárov príp. súborov, ktoré by svojou povahou mohli byt v rozpore zo zákonmi a dobrými mravmi. Dodrzujte pravidlá!





    0
    melirko
    Ratio 1.23

    Member+

    17/06/2021 20.42.47
    Mohol by si sem dat aj posledný diel?Díky


    --------------
    >> 17/06/2021 21.00.46
    UPLOADER: Tretia cast uz je tu


    --------------
    >> 17/06/2021 23.30.08
    melirko: Ano je len nejak mi to nejde prehrat


    --------------
    >> 17/06/2021 23.40.57
    UPLOADER: pozeram, ze asi viacerym.... ked tak urobim mensiu verziu v super kvalite... ok?


    --------------
    >> 17/06/2021 23.47.12
    melirko: ok,diky.


    Back

    Na serveru se nenalézají zádne soubory. Za odkazy jsou výhradně zodpovědní uzivatelé a návstěvníci tohoto trackeru. Administrátor není zodpovědný za pridaný obsah ani za skody zpusobené uzivateli. Rozsirovat stránku nebo její obsah bez souhlasu ownera je zakázano. Nesmíte pouzívat tuto webovou stránku pro distribuovaní nebo download zádného materiálu pokud nemáte povolení od príslusného vlastníka práv. Uzivatelé jsou zodpovědní za dodrzování těchto pravidel a podmínek. Owner má právo kdykoliv změnit pravidla tohoto trackeru.

    [ Script trval: 0.024 sec. ] - [ GZIP: enabled ]
    BtiTracker (1.4.8) by Btiteam
    Je zhruba 00:24

    TOPlist