Tvoj účet nieje VIP.
Preto sú tvoje funkcie a možnosti značne obmedzené.
Pre aktiváciu VIP klikni sem.

Laska na ostri mece / Wu xia liang zhu (2008)(CZ/CHI)[720p] = CSFD 65% | SkTorrent.eu

Cz-SkTorrent open Tracker, na volné zdielanie súborov. Pridajte sa k nasej komunite a získajte pristup k tisícom torrentov.

  • vysoká rýchlost
  • úplne zdarma
  • prevazne Slovenska a Ceska scena
  • ste tu s nami uz 5 rokov - Dakujeme
  • Vitaj Guest (Login) Ako stahovat
    torrenty?
    Torrenty:
    v1 textová
    v2 obrázková
    v3 online filmy
    Ako sa stat
    Uploaderom
    Online
    Filmy
    Forum
    Pravidlá
    BitTorrent
    klient
    Meno: Heslo:
    Zaregistrovat
    Po zaregistrovaní mozte volne stahovat
    Zabudol som heslo

    Torrent's details
    Laska na ostri mece / Wu xia liang zhu (2008)(CZ/CHI)[720p] = CSFD 65% Názov:Laska na ostri mece / Wu xia liang zhu (2008)(CZ/CHI)[720p] = CSFD 65% Hodnocení: Stiahnut
    Pozriet Online
    Kategória:HD Filmy Velikost:2.2 GB BitTorrent klient
    Pridaný: Súbory:
    Skontrolován:2018-12-24 Peerov:2 (Seed: 2, Leech: 0)
    Zaner:Akcni,Romanticky Uploader:Uvidis, az ked budes
    VIP
    Kúp nám Pivo 1,10€

    Kúp nám Pivo
    Podporte nas na Facebooku !
    Pridaj do zalozky
    Pridaj do zalozky
















    Jazyk: 2.0 cz a 5.1 kantonsky
    Délka: 1 Hod. 42 minut
    Rok vydání: Hong Kong, 2008
    Video: Avc
    Zvuk: Mp3 a Ac3
    Titulky: Nenašel jsem
    Žánr: Akční / Romantický



    O filmu



    Čínský Romeo a Julie v akčním provedení. Akční film natočený podle staré čínské legendy o tragické lásce dvou mladých lidí. Krásná a inteligentní Jan Gi (Yanzhi) touží po vzdělání, které má jako dívka odepřeno. V přestrojení za mladíka se jí podaří dostat do školy bojových umění. Při výcviku se ale postupně ukáže, že nemá na bojové umění zrovna nadání a místo toho se zamiluje do Velkého bratra, nejlepšího bojovníka z celé školy. Ve chvíli, kdy si oba myslí, že našli štěstí jeden ve druhém, musí Jan Gi školu opustit a vrátit se domů, kde ji čeká překvapení. Když Jan Gi zjistí, jaký osud ji čeká, odhodlá se k šílenému činu a Velký bratr neváhá prolít potoky krve a rozsekat spousty těl, aby mohl se svou milou nakonec odejít tam, kde už je nikdy nikdo nerozdělí.

    Náhledy



    Video / Audio

    Complete name: C:\Users\Magor\Downloads\Láska na ostří meče cz 720p by Velkej Magor.mkv
    Format: Matroska
    Format version: Version 4 / Version 2
    File size: 2.24 GiB
    Duration: 1 h 42 min
    Overall bit rate: 3 135 kb/s
    Encoded date: UTC 2018-01-12 09:59:26
    Writing application: mkvmerge v18.0.0 (Apricity) 32-bit
    Writing library: libebml v1.3.5   libmatroska v1.4.8

    Video
    ID: 1
    Format: AVC
    Format/Info: Advanced Video Codec
    Format profile: High@L4.1
    Format settings: CABAC / 4 Ref Frames
    Format settings, CABAC: Yes
    Format settings, ReFrames: 4 frames
    Codec ID: V_MPEG4/ISO/AVC
    Duration: 1 h 42 min
    Bit rate: 2 303 kb/s
    Width: 1 280 pixels
    Height: 720 pixels
    Display aspect ratio: 16:9
    Frame rate mode: Constant
    Frame rate: 24.000 FPS
    Color space: YUV
    Chroma subsampling: 4:2:0
    Bit depth: 8 bits
    Scan type: Progressive
    Bits/(Pixel*Frame): 0.104
    Stream size: 1.65 GiB (73%)
    Title: Created by Velkej Magor
    Writing library: x264 core

    Audio #1
    ID: 2
    Format: AC-3
    Format/Info: Audio Coding 3
    Codec ID: A_AC3
    Duration: 1 h 42 min
    Bit rate mode: Constant
    Bit rate: 640 kb/s
    Channel(s): 6 channels
    Channel positions: Front: L C R, Side: L R, LFE
    Sampling rate: 48.0 kHz
    Frame rate: 31.250 FPS (1536 SPF)
    Bit depth: 16 bits
    Compression mode: Lossy
    Stream size: 469 MiB (20%)
    Title: 5.1
    Language: Chinese
    Service kind: Complete Main
    Default: No
    Forced: No

    Audio #2
    ID: 3
    Format: MPEG Audio
    Format version: Version 1
    Format profile: Layer 3
    Codec ID: A_MPEG/L3
    Codec ID/Hint: MP3
    Duration: 1 h 42 min
    Bit rate mode: Constant
    Bit rate: 192 kb/s
    Channel(s): 2 channels
    Sampling rate: 44.1 kHz
    Frame rate: 38.281 FPS (1152 SPF)
    Compression mode: Lossy
    Stream size: 141 MiB (6%)
    Title: 2.0 (Magor)
    Writing library: LAMELAME_MAJOR_VERSION
    Language: Czech
    Default: Yes
    Forced: No


    Banana King Porduction







    Upozornenie:
    Ziadny zo zobrazených súborov sa nenachádza na tomto serveri. Server slúzi len k síreniu vlastnorucne vytvorených aplikácií, videí, hudby ai. Autori stránok nenesú ziadnu zodpovednost za zverejnené odkazy, komentáre a obsah súborov. Vsetky komentáre, odkazy, súbory ktoré by svojou povahou mohli byt v rozpore zo zákonmi sem vkladáte na vlastnú zodpovednost. Autori stránok si vyhradzujú právo cenzúry odkazov, komentárov príp. súborov, ktoré by svojou povahou mohli byt v rozpore zo zákonmi a dobrými mravmi. Dodrzujte pravidlá!





    0
    milanpec

    Member+
    24/12/2018 18.14.04
    Odpovedat


    0
    dopusy

    VIP
    24/12/2018 16.46.36
    Odpovedat

    banana do pusy..super kamo..NICE WORK
    Uploader
    24/12/2018 16.04.56
    Odpovedat


    0
    houmers

    VIP
    24/12/2018 15.54.50
    Odpovedat

    upe hnus ale za snahu máš 3 hvězdy


    Back

    Na serveru se nenalézají zádne soubory. Za odkazy jsou výhradně zodpovědní uzivatelé a návstěvníci tohoto trackeru. Administrátor není zodpovědný za pridaný obsah ani za skody zpusobené uzivateli. Rozsirovat stránku nebo její obsah bez souhlasu ownera je zakázano. Nesmíte pouzívat tuto webovou stránku pro distribuovaní nebo download zádného materiálu pokud nemáte povolení od príslusného vlastníka práv. Uzivatelé jsou zodpovědní za dodrzování těchto pravidel a podmínek. Owner má právo kdykoliv změnit pravidla tohoto trackeru.

    [ Script trval: 0.036 sec. ] - [ GZIP: enabled ]
    BtiTracker (1.4.8) by Btiteam
    Je zhruba 05:01

    TOPlist