Tvoj účet nieje VIP.
Preto sú tvoje funkcie a možnosti značne obmedzené.
Pre aktiváciu VIP klikni sem.

Lemony Snicket: Rada nestastnych prihod / Lemony Snicket's A Series of Unfortunate Events (2004)(CZ) = CSFD 75% | SkTorrent.eu

Cz-SkTorrent open Tracker, na volné zdielanie súborov. Pridajte sa k nasej komunite a získajte pristup k tisícom torrentov.

  • vysoká rýchlost
  • úplne zdarma
  • prevazne Slovenska a Ceska scena
  • ste tu s nami uz 5 rokov - Dakujeme
  • Vitaj Guest (Login) Ako stahovat
    torrenty?
    Torrenty:
    v1 textová
    v2 obrázková
    v3 online filmy
    Ako sa stat
    Uploaderom
    Online
    Filmy
    Forum
    Pravidlá
    BitTorrent
    klient
    Meno: Heslo:
    Zaregistrovat
    Po zaregistrovaní mozte volne stahovat
    Zabudol som heslo

    Torrent's details
    Lemony Snicket: Rada nestastnych prihod / Lemony Snicket's A Series of Unfortunate Events (2004)(CZ) = CSFD 75% Názov:Lemony Snicket: Rada nestastnych prihod / Lemony Snicket's A Series of Unfortunate Events (2004)(CZ) = CSFD 75% Hodnocení: Stiahnut
    Pozriet Online
    Kategória:Filmy CZ/SK dabing Velikost:810.9 MB BitTorrent klient
    Pridaný: Súbory:
    Skontrolován:2014-02-10 Peerov:0 (Seed: 0, Leech: 0)
    Zaner:Dobrodruzny,Fantasy,Komedie,Rodinny Uploader:Uvidis, az ked budes
    VIP
    Kúp nám Pivo 1,10€

    Kúp nám Pivo
    Podporte nas na Facebooku !
    Pridaj do zalozky
    Pridaj do zalozky










    Jazyk: Česky
    Titulky: Nejsou
    Odkaz na CSFD: http://www.csfd.cz/film/71700-lemony-snicket-rada-nestastnych-prihod
    http://www.csfd.cz/film/71700-lemony-snicket-rada-nestastnych-prihod/
    Rok vydání: 2004
    Délka: 108 min
    Žánr: Dobrodružný / Fantasy / Komedie / Rodinný



    Format: AVI
    Format/Info: Audio Video Interleave
    File size: 811 MiB
    Duration: 1h 43mn
    Overall bit rate: 1 095 Kbps
    Writing application: MEncoder SVN-r30881(20100311-gcc4.3.3)
    Writing library: MPlayer

    Video
    ID: 0
    Format: MPEG-4 Visual
    Format profile: Advanced Simple@L5
    Format settings, BVOP: 2
    Format settings, QPel: No
    Format settings, GMC: No warppoints
    Format settings, Matrix: Default (H.263)
    Codec ID: XVID
    Codec ID/Hint: XviD
    Duration: 1h 43mn
    Bit rate: 955 Kbps
    Width: 624 pixels
    Height: 352 pixels
    Display aspect ratio: 16:9
    Frame rate: 23.976 fps
    Color space: YUV
    Chroma subsampling: 4:2:0
    Bit depth: 8 bits
    Scan type: Progressive
    Compression mode: Lossy
    Bits/(Pixel*Frame): 0.181
    Stream size: 707 MiB (87%)
    Writing library: XviD 1.2.1 (UTC 2008-12-04)

    Audio
    ID: 1
    Format: MPEG Audio
    Format version: Version 1
    Format profile: Layer 3
    Mode: Joint stereo
    Mode extension: MS Stereo
    Codec ID: 55
    Codec ID/Hint: MP3
    Duration: 1h 43mn
    Bit rate mode: Constant
    Bit rate: 128 Kbps
    Channel(s): 2 channels
    Sampling rate: 44.1 KHz
    Compression mode: Lossy
    Delay relative to video: 42ms
    Stream size: 94.8 MiB (12%)
    Alignment: Aligned on interleaves
    Interleave, duration: 26 ms (0.63 video frame)
    Interleave, preload duration: 522 ms
    Writing library: LAME3.98



    Rodinná černá komedie Řada nešťastných příhod byla natočena podle knih Zlý začátek (Kniha1), Temné terárium (Kniha 2) a Široké okno (Kniha 3) vypravěče Lemony Snicketa. Film plný originální směsi inteligence, ironie a humoru okouzlí nejen mladé diváky. Příběh pojednává o třech dětech a jejich více než pozoruhodné životní cestě. Přes ztrátu rodičů přes sled tajemných okolností se sourozenci Baudelairovi navzájem naleznou na cestě nádherných překvapení a katastrofálních nezdarů při pátrání po domově. To vše pod dohledem nového poručníka - lstivého, vychytralého strýce Olafa, který je ochoten udělat cokoliv, aby získal jejich dědictví. A to opravdu cokoliv. Avšak děti se mohou spolehnout na svůj přirozený důmysl, vynalézavost, vtip a v neposlední řadě na nezkrotná kouzla. To vše jim pomůže objevit, že pokud drží pospolu, tvoří rodinu. Dreamworks Pictures a Paramout Pictures představují ŘADU NEŠŤASTNÝCH PŘÍHOD, film pod režijní taktovkou Brada Silberlinga (Casper, Město andělů), film s hvězdným obsazením (Jim Carrey, (Meryl Streep - ), Emily Browning (Loď duchů), Liam Aiken (Listopadová romance). Scénář napsal Robert Gordon, o produkci se postarali Duncan Kenworthy, Tim Bevan a Eric Fellner.









    ONLINE











    parnogras1, PavelDasa420, Darina90, 2Skritekk3, Marcello1978, GeminiCZ, barunka2212006, Kubajz93, kelius, luko365, tonowais, neilz, simon2010, Harafak,

    + Pridaj vlastnu verziu tohto torrentu +


    Upozornenie:
    Ziadny zo zobrazených súborov sa nenachádza na tomto serveri. Server slúzi len k síreniu vlastnorucne vytvorených aplikácií, videí, hudby ai. Autori stránok nenesú ziadnu zodpovednost za zverejnené odkazy, komentáre a obsah súborov. Vsetky komentáre, odkazy, súbory ktoré by svojou povahou mohli byt v rozpore zo zákonmi sem vkladáte na vlastnú zodpovednost. Autori stránok si vyhradzujú právo cenzúry odkazov, komentárov príp. súborov, ktoré by svojou povahou mohli byt v rozpore zo zákonmi a dobrými mravmi. Dodrzujte pravidlá!


    No comments...


    Back

    Na serveru se nenalézají zádne soubory. Za odkazy jsou výhradně zodpovědní uzivatelé a návstěvníci tohoto trackeru. Administrátor není zodpovědný za pridaný obsah ani za skody zpusobené uzivateli. Rozsirovat stránku nebo její obsah bez souhlasu ownera je zakázano. Nesmíte pouzívat tuto webovou stránku pro distribuovaní nebo download zádného materiálu pokud nemáte povolení od príslusného vlastníka práv. Uzivatelé jsou zodpovědní za dodrzování těchto pravidel a podmínek. Owner má právo kdykoliv změnit pravidla tohoto trackeru.

    [ Script trval: 0.023 sec. ] - [ GZIP: enabled ]
    Je zhruba 11:22
    sql

    TOPlist