Tvoj účet nieje VIP.
Preto sú tvoje funkcie a možnosti značne obmedzené.
Pre aktiváciu VIP klikni sem.

Lost Bullet 2 / Ztracena kulka 2 (2022)(1080p)(x264)(WebDl)(CZ+Multi 6 lang)(MultiSUB) = CSFD 60% | SkTorrent.eu

Cz-SkTorrent open Tracker, na volné zdielanie súborov. Pridajte sa k nasej komunite a získajte pristup k tisícom torrentov.

  • vysoká rýchlost
  • úplne zdarma
  • prevazne Slovenska a Ceska scena
  • ste tu s nami uz 5 rokov - Dakujeme
  • Vitaj Guest (Login) Ako stahovat
    torrenty?
    Torrenty:
    v1 textová
    v2 obrázková
    Ako sa stat
    Uploaderom
    Online
    Filmy
    Forum
    Pravidlá
    BitTorrent
    klient
    Meno: Heslo:
    Zaregistrovat
    Po zaregistrovaní mozte volne stahovat
    Zabudol som heslo

    Lost Bullet 2 / Ztracena kulka 2 (2022)(1080p)(x264)(WebDl)(CZ+Multi 6 lang)(MultiSUB)  = CSFD 60% Názov:Lost Bullet 2 / Ztracena kulka 2 (2022)(1080p)(x264)(WebDl)(CZ+Multi 6 lang)(MultiSUB) = CSFD 60% Hodnocení:N/A Stiahnut
    Pozriet Online
    Kategória:Filmy CZ/SK dabing Velikost:4.5 GB BitTorrent klient
    Pridaný: Súbory:
    Skontrolován:2022-11-17 Peerov:102 (Seed: 101, Leech: 1)
    Zaner:Akcni,Krimi,Thriller Uploader:Uvidis, az ked budes
    VIP
    Kúp nám Pivo 1,10€

    Kúp nám Pivo
    Pridaj do zalozky
    Pridaj do zalozky





    [center]






    Movie Name: Lost Bullet 2 (2022)  
    IMDb Rating: 6.4/10

    Quality: 1080p (WebDL)
    Language: AC3 5.1 - English , German , Hungarian , French , Czech , Ukrainian
    Subtitles: Multi
    Director: Guillaume Pierret, Alban Lenoir
    Writers: Guillaume Pierret (scenario) Alban Lenoir (adaptation and dialogue) Kamel Guemra (adaptation and dialogue)
    Genres: Action | Crime | Thiller |


    Geniální mechanik Lino očistil svoje jméno a teď uľ ho zajímá jenom pomsta. Zkorumpovaní policajti za smrt jeho bráchy i mentora zaplatí!





    [/center]

    Format                                   : Matroska
    Format version                           : Version 4
    File size                                : 4.49 GiB
    Duration                                 : 1 h 40 min
    Overall bit rate mode                    : Variable
    Overall bit rate                         : 6 416 kb/s
    Movie name                               : Ztracená kulka 2
    Encoded date                             : UTC 2022-11-10 17:33:27
    Writing application                      : mkvmerge v68.0.0 ('The Curtain') 64-bit
    Writing library                          : libebml v1.4.2 + libmatroska v1.6.4

    Video
    ID                                       : 1
    Format                                   : AVC
    Format/Info                              : Advanced Video Codec
    Format profile                           : High@L4
    Format settings                          : CABAC / 4 Ref Frames
    Format settings, CABAC                   : Yes
    Format settings, Reference frames        : 4 frames
    Codec ID                                 : V_MPEG4/ISO/AVC
    Duration                                 : 1 h 40 min
    Bit rate mode                            : Variable
    Bit rate                                 : 2 572 kb/s
    Maximum bit rate                         : 20.0 Mb/s
    Width                                    : 1 920 pixels
    Height                                   : 1 080 pixels
    Display aspect ratio                     : 16:9
    Frame rate mode                          : Constant
    Frame rate                               : 25.000 FPS
    Color space                              : YUV
    Chroma subsampling                       : 4:2:0
    Bit depth                                : 8 bits
    Scan type                                : Progressive
    Bits/(Pixel*Frame)                       : 0.050
    Stream size                              : 1.80 GiB (40%)
    Default                                  : Yes
    Forced                                   : No

    Audio #1
    ID                                       : 2
    Format                                   : E-AC-3
    Format/Info                              : Enhanced AC-3
    Commercial name                          : Dolby Digital Plus
    Codec ID                                 : A_EAC3
    Duration                                 : 1 h 40 min
    Bit rate mode                            : Constant
    Bit rate                                 : 640 kb/s
    Channel(s)                               : 6 channels
    Channel layout                           : L R C LFE Ls Rs
    Sampling rate                            : 48.0 kHz
    Frame rate                               : 31.250 FPS (1536 SPF)
    Compression mode                         : Lossy
    Stream size                              : 458 MiB (10%)
    Language                                 : Czech
    Service kind                             : Complete Main
    Default                                  : Yes
    Forced                                   : No

    Audio #2
    ID                                       : 3
    Format                                   : E-AC-3
    Format/Info                              : Enhanced AC-3
    Commercial name                          : Dolby Digital Plus
    Codec ID                                 : A_EAC3
    Duration                                 : 1 h 40 min
    Bit rate mode                            : Constant
    Bit rate                                 : 640 kb/s
    Channel(s)                               : 6 channels
    Channel layout                           : L R C LFE Ls Rs
    Sampling rate                            : 48.0 kHz
    Frame rate                               : 31.250 FPS (1536 SPF)
    Compression mode                         : Lossy
    Stream size                              : 458 MiB (10%)
    Language                                 : German
    Service kind                             : Complete Main
    Default                                  : No
    Forced                                   : No

    Audio #3
    ID                                       : 4
    Format                                   : E-AC-3
    Format/Info                              : Enhanced AC-3
    Commercial name                          : Dolby Digital Plus
    Codec ID                                 : A_EAC3
    Duration                                 : 1 h 40 min
    Bit rate mode                            : Constant
    Bit rate                                 : 640 kb/s
    Channel(s)                               : 6 channels
    Channel layout                           : L R C LFE Ls Rs
    Sampling rate                            : 48.0 kHz
    Frame rate                               : 31.250 FPS (1536 SPF)
    Compression mode                         : Lossy
    Stream size                              : 458 MiB (10%)
    Language                                 : English
    Service kind                             : Complete Main
    Default                                  : No
    Forced                                   : No

    Audio #4
    ID                                       : 5
    Format                                   : E-AC-3
    Format/Info                              : Enhanced AC-3
    Commercial name                          : Dolby Digital Plus
    Codec ID                                 : A_EAC3
    Duration                                 : 1 h 40 min
    Bit rate mode                            : Constant
    Bit rate                                 : 640 kb/s
    Channel(s)                               : 6 channels
    Channel layout                           : L R C LFE Ls Rs
    Sampling rate                            : 48.0 kHz
    Frame rate                               : 31.250 FPS (1536 SPF)
    Compression mode                         : Lossy
    Stream size                              : 458 MiB (10%)
    Language                                 : French
    Service kind                             : Complete Main
    Default                                  : No
    Forced                                   : No

    Audio #5
    ID                                       : 6
    Format                                   : E-AC-3
    Format/Info                              : Enhanced AC-3
    Commercial name                          : Dolby Digital Plus
    Codec ID                                 : A_EAC3
    Duration                                 : 1 h 40 min
    Bit rate mode                            : Constant
    Bit rate                                 : 640 kb/s
    Channel(s)                               : 6 channels
    Channel layout                           : L R C LFE Ls Rs
    Sampling rate                            : 48.0 kHz
    Frame rate                               : 31.250 FPS (1536 SPF)
    Compression mode                         : Lossy
    Stream size                              : 458 MiB (10%)
    Language                                 : Hungarian
    Service kind                             : Complete Main
    Default                                  : No
    Forced                                   : No

    Audio #6
    ID                                       : 7
    Format                                   : E-AC-3
    Format/Info                              : Enhanced AC-3
    Commercial name                          : Dolby Digital Plus
    Codec ID                                 : A_EAC3
    Duration                                 : 1 h 40 min
    Bit rate mode                            : Constant
    Bit rate                                 : 640 kb/s
    Channel(s)                               : 6 channels
    Channel layout                           : L R C LFE Ls Rs
    Sampling rate                            : 48.0 kHz
    Frame rate                               : 31.250 FPS (1536 SPF)
    Compression mode                         : Lossy
    Stream size                              : 458 MiB (10%)
    Language                                 : Ukrainian
    Service kind                             : Complete Main
    Default                                  : No
    Forced                                   : No

    Text #1
    ID                                       : 8
    Format                                   : UTF-8
    Codec ID                                 : S_TEXT/UTF8
    Codec ID/Info                            : UTF-8 Plain Text
    Duration                                 : 1 h 37 min
    Bit rate                                 : 31 b/s
    Count of elements                        : 891
    Stream size                              : 22.8 KiB (0%)
    Language                                 : Czech
    Default                                  : No
    Forced                                   : No

    Text #2
    ID                                       : 9
    Format                                   : UTF-8
    Codec ID                                 : S_TEXT/UTF8
    Codec ID/Info                            : UTF-8 Plain Text
    Duration                                 : 1 h 37 min
    Bit rate                                 : 17 b/s
    Count of elements                        : 492
    Stream size                              : 12.8 KiB (0%)
    Language                                 : Czech
    Default                                  : No
    Forced                                   : No

    Text #3
    ID                                       : 10
    Format                                   : UTF-8
    Codec ID                                 : S_TEXT/UTF8
    Codec ID/Info                            : UTF-8 Plain Text
    Duration                                 : 1 h 37 min
    Bit rate                                 : 20 b/s
    Count of elements                        : 537
    Stream size                              : 14.4 KiB (0%)
    Language                                 : Czech
    Default                                  : No
    Forced                                   : No

    Text #4
    ID                                       : 11
    Format                                   : UTF-8
    Codec ID                                 : S_TEXT/UTF8
    Codec ID/Info                            : UTF-8 Plain Text
    Duration                                 : 1 h 37 min
    Bit rate                                 : 2 b/s
    Count of elements                        : 73
    Stream size                              : 1.81 KiB (0%)
    Language                                 : Czech
    Default                                  : Yes
    Forced                                   : No

    Text #5
    ID                                       : 12
    Format                                   : UTF-8
    Codec ID                                 : S_TEXT/UTF8
    Codec ID/Info                            : UTF-8 Plain Text
    Duration                                 : 1 h 37 min
    Bit rate                                 : 21 b/s
    Count of elements                        : 514
    Stream size                              : 15.1 KiB (0%)
    Language                                 : German
    Default                                  : No
    Forced                                   : No

    Text #6
    ID                                       : 13
    Format                                   : UTF-8
    Codec ID                                 : S_TEXT/UTF8
    Codec ID/Info                            : UTF-8 Plain Text
    Duration                                 : 1 h 37 min
    Bit rate                                 : 2 b/s
    Count of elements                        : 73
    Stream size                              : 1.88 KiB (0%)
    Language                                 : German
    Default                                  : No
    Forced                                   : No

    Text #7
    ID                                       : 14
    Format                                   : UTF-8
    Codec ID                                 : S_TEXT/UTF8
    Codec ID/Info                            : UTF-8 Plain Text
    Duration                                 : 1 h 30 min
    Bit rate                                 : 27 b/s
    Count of elements                        : 581
    Stream size                              : 17.9 KiB (0%)
    Language                                 : English
    Default                                  : No
    Forced                                   : No

    Text #8
    ID                                       : 15
    Format                                   : UTF-8
    Codec ID                                 : S_TEXT/UTF8
    Codec ID/Info                            : UTF-8 Plain Text
    Duration                                 : 1 h 24 min
    Bit rate                                 : 2 b/s
    Count of elements                        : 67
    Stream size                              : 1.83 KiB (0%)
    Language                                 : English
    Default                                  : No
    Forced                                   : No

    Text #9
    ID                                       : 16
    Format                                   : UTF-8
    Codec ID                                 : S_TEXT/UTF8
    Codec ID/Info                            : UTF-8 Plain Text
    Duration                                 : 1 h 37 min
    Bit rate                                 : 22 b/s
    Count of elements                        : 545
    Stream size                              : 16.3 KiB (0%)
    Language                                 : English
    Default                                  : No
    Forced                                   : No

    Text #10
    ID                                       : 17
    Format                                   : UTF-8
    Codec ID                                 : S_TEXT/UTF8
    Codec ID/Info                            : UTF-8 Plain Text
    Duration                                 : 1 h 38 min
    Bit rate                                 : 35 b/s
    Count of elements                        : 954
    Stream size                              : 25.7 KiB (0%)
    Language                                 : English
    Default                                  : No
    Forced                                   : No

    Text #11
    ID                                       : 18
    Format                                   : UTF-8
    Codec ID                                 : S_TEXT/UTF8
    Codec ID/Info                            : UTF-8 Plain Text
    Duration                                 : 1 h 1 min
    Bit rate                                 : 3 b/s
    Count of elements                        : 55
    Stream size                              : 1.51 KiB (0%)
    Language                                 : French
    Default                                  : No
    Forced                                   : No

    Text #12
    ID                                       : 19
    Format                                   : UTF-8
    Codec ID                                 : S_TEXT/UTF8
    Codec ID/Info                            : UTF-8 Plain Text
    Duration                                 : 1 h 38 min
    Bit rate                                 : 34 b/s
    Count of elements                        : 880
    Stream size                              : 24.8 KiB (0%)
    Language                                 : French
    Default                                  : No
    Forced                                   : No

    Text #13
    ID                                       : 20
    Format                                   : UTF-8
    Codec ID                                 : S_TEXT/UTF8
    Codec ID/Info                            : UTF-8 Plain Text
    Duration                                 : 1 h 38 min
    Bit rate                                 : 34 b/s
    Count of elements                        : 916
    Stream size                              : 24.8 KiB (0%)
    Language                                 : Hungarian
    Default                                  : No
    Forced                                   : No

    Text #14
    ID                                       : 21
    Format                                   : UTF-8
    Codec ID                                 : S_TEXT/UTF8
    Codec ID/Info                            : UTF-8 Plain Text
    Duration                                 : 1 h 30 min
    Bit rate                                 : 23 b/s
    Count of elements                        : 506
    Stream size                              : 15.5 KiB (0%)
    Language                                 : Hungarian
    Default                                  : No
    Forced                                   : No

    Text #15
    ID                                       : 22
    Format                                   : UTF-8
    Codec ID                                 : S_TEXT/UTF8
    Codec ID/Info                            : UTF-8 Plain Text
    Duration                                 : 1 h 29 min
    Bit rate                                 : 25 b/s
    Count of elements                        : 545
    Stream size                              : 16.6 KiB (0%)
    Language                                 : Hungarian
    Default                                  : No
    Forced                                   : No

    Text #16
    ID                                       : 23
    Format                                   : UTF-8
    Codec ID                                 : S_TEXT/UTF8
    Codec ID/Info                            : UTF-8 Plain Text
    Duration                                 : 1 h 30 min
    Bit rate                                 : 2 b/s
    Count of elements                        : 72
    Stream size                              : 1.93 KiB (0%)
    Language                                 : Hungarian
    Default                                  : No
    Forced                                   : No

    Text #17
    ID                                       : 24
    Format                                   : UTF-8
    Codec ID                                 : S_TEXT/UTF8
    Codec ID/Info                            : UTF-8 Plain Text
    Duration                                 : 1 h 37 min
    Bit rate                                 : 4 b/s
    Count of elements                        : 75
    Stream size                              : 3.17 KiB (0%)
    Language                                 : Ukrainian
    Default                                  : No
    Forced                                   : No

    Text #18
    ID                                       : 25
    Format                                   : UTF-8
    Codec ID                                 : S_TEXT/UTF8
    Codec ID/Info                            : UTF-8 Plain Text
    Duration                                 : 1 h 37 min
    Bit rate                                 : 36 b/s
    Count of elements                        : 542
    Stream size                              : 25.9 KiB (0%)
    Language                                 : Ukrainian
    Default                                  : No
    Forced                                   : No



    ONLINE











    mimu, Manny54, joshi59, killuminati9475, zdenek0120, Mikolaj111,

    + Pridaj vlastnu verziu tohto torrentu +


    Upozornenie:
    Ziadny zo zobrazených súborov sa nenachádza na tomto serveri. Server slúzi len k síreniu vlastnorucne vytvorených aplikácií, videí, hudby ai. Autori stránok nenesú ziadnu zodpovednost za zverejnené odkazy, komentáre a obsah súborov. Vsetky komentáre, odkazy, súbory ktoré by svojou povahou mohli byt v rozpore zo zákonmi sem vkladáte na vlastnú zodpovednost. Autori stránok si vyhradzujú právo cenzúry odkazov, komentárov príp. súborov, ktoré by svojou povahou mohli byt v rozpore zo zákonmi a dobrými mravmi. Dodrzujte pravidlá!





    0
    lidmila
    Ratio 0.44

    Clen

    21/11/2022 18.41.45



    --------------
    >> 21/11/2022 19.02.10
    UPLOADER:


    Back

    Na serveru se nenalézají zádne soubory. Za odkazy jsou výhradně zodpovědní uzivatelé a návstěvníci tohoto trackeru. Administrátor není zodpovědný za pridaný obsah ani za skody zpusobené uzivateli. Nesmíte pouzívat tuto webovou stránku pro distribuovaní nebo download zádného materiálu pokud nemáte povolení od príslusného vlastníka práv. Uzivatelé jsou zodpovědní za dodrzování těchto pravidel a podmínek. Owner má právo kdykoliv změnit pravidla tohoto trackeru.

    [ Script trval: 0.035 sec. ] - [ GZIP: enabled ]
    Je zhruba 19:58
    memcache

    TOPlist