Tvoj účet nieje VIP.
Preto sú tvoje funkcie a možnosti značne obmedzené.
Pre aktiváciu VIP klikni sem.

Luna Star ,Kira Noir | SkTorrent.eu

Cz-SkTorrent open Tracker, na volné zdielanie súborov. Pridajte sa k nasej komunite a získajte pristup k tisícom torrentov.

  • vysoká rýchlost
  • úplne zdarma
  • prevazne Slovenska a Ceska scena
  • ste tu s nami uz 5 rokov - Dakujeme
  • Vitaj Guest (Login) Ako stahovat
    torrenty?
    Torrenty:
    v1 textová
    v2 obrázková
    v3 online filmy
    Ako sa stat
    Uploaderom
    Online
    Filmy
    Forum
    Pravidlá
    BitTorrent
    klient
    Meno: Heslo:
    Zaregistrovat
    Po zaregistrovaní mozte volne stahovat
    Zabudol som heslo

    Torrent's details
    Luna Star ,Kira Noir Názov:Luna Star ,Kira Noir Hodnocení: Stiahnut
    Pozriet Online
    Kategória:xXx Velikost:628.2 MB BitTorrent klient
    Pridaný: Súbory:
    Skontrolován:2020-10-29 Peerov:8 (Seed: 8, Leech: 0)
    Zaner: Uploader:Uvidis, az ked budes
    VIP
    Kúp nám Pivo 1,10€

    Kúp nám Pivo
    Podporte nas na Facebooku !
    Pridaj do zalozky
    Pridaj do zalozky



    ">

    Kira Noir a Luna Star - Personal Anal Training 



    General
    Unique ID                                : 295623275922378244936463632440559259949 (0xDE66F8D0C6C58DD716D9A657CE01D12D)
    Complete name                            : I:\®ivotopisy\[Brazzers] Kira Noir, Luna Star - Group Pers-Anal Training.mkv
    Format                                   : Matroska
    Format version                           : Version 4
    File size                                : 628 MiB
    Duration                                 : 37 min 35 s
    Overall bit rate                         : 2 337 kb/s
    Encoded date                             : UTC 2020-05-22 21:58:07
    Writing application                      : mkvmerge v46.0.0 ('No Deeper Escape') 64-bit
    Writing library                          : libebml v1.3.10 + libmatroska v1.5.2 / Lavf58.43.100
    Cover                                    : Yes
    Attachments                              : Cover.jpg
    RLS                                      : SexG ? Downloaded to www.hd-cztorrent.cz

    Video
    ID                                       : 1
    Format                                   : AVC
    Format/Info                              : Advanced Video Codec
    Format profile                           : High@L3.1
    Format settings                          : CABAC / 1 Ref Frames
    Format settings, CABAC                   : Yes
    Format settings, ReFrames                : 1 frame
    Format settings, GOP                     : M=1, N=24
    Codec ID                                 : V_MPEG4/ISO/AVC
    Duration                                 : 37 min 34 s
    Bit rate mode                            : Constant
    Bit rate                                 : 2 210 kb/s
    Width                                    : 1 280 pixels
    Height                                   : 720 pixels
    Display aspect ratio                     : 16:9
    Frame rate mode                          : Constant
    Frame rate                               : 23.976 (24000/1001) FPS
    Color space                              : YUV
    Chroma subsampling                       : 4:2:0
    Bit depth                                : 8 bits
    Scan type                                : Progressive
    Bits/(Pixel*Frame)                       : 0.100
    Stream size                              : 593 MiB (94%)
    Title                                    : H264 1280x720 16:9
    Language                                 : English
    Default                                  : Yes
    Forced                                   : No
    Color range                              : Limited
    Color primaries                          : BT.709
    Transfer characteristics                 : BT.709
    Matrix coefficients                      : BT.709

    Audio
    ID                                       : 2
    Format                                   : AAC LC
    Format/Info                              : Advanced Audio Codec Low Complexity
    Codec ID                                 : A_AAC-2
    Duration                                 : 37 min 35 s
    Bit rate                                 : 128 kb/s
    Channel(s)                               : 2 channels
    Channel layout                           : L R
    Sampling rate                            : 48.0 kHz
    Frame rate                               : 46.875 FPS (1024 SPF)
    Compression mode                         : Lossy
    Stream size                              : 34.5 MiB (5%)
    Title                                    : AAC LC 48000Hz 2Ch.
    Language                                 : English
    Default                                  : Yes
    Forced                                   : No








    Pavelkosutka,

    + Pridaj vlastnu verziu tohto torrentu +


    Upozornenie:
    Ziadny zo zobrazených súborov sa nenachádza na tomto serveri. Server slúzi len k síreniu vlastnorucne vytvorených aplikácií, videí, hudby ai. Autori stránok nenesú ziadnu zodpovednost za zverejnené odkazy, komentáre a obsah súborov. Vsetky komentáre, odkazy, súbory ktoré by svojou povahou mohli byt v rozpore zo zákonmi sem vkladáte na vlastnú zodpovednost. Autori stránok si vyhradzujú právo cenzúry odkazov, komentárov príp. súborov, ktoré by svojou povahou mohli byt v rozpore zo zákonmi a dobrými mravmi. Dodrzujte pravidlá!





    0
    kuaaa
    Ratio 1.26

    Member+

    29/10/2020 19.29.18
    I:®ivotopisy[Brazzers] Kira Noir, Luna Star - Group Pers-Anal Training.mkv



    --------------
    >> 29/10/2020 23.09.25
    msoky: no niekto sa na pohovoroch prezentuje aj takto


    Back

    Na serveru se nenalézají zádne soubory. Za odkazy jsou výhradně zodpovědní uzivatelé a návstěvníci tohoto trackeru. Administrátor není zodpovědný za pridaný obsah ani za skody zpusobené uzivateli. Rozsirovat stránku nebo její obsah bez souhlasu ownera je zakázano. Nesmíte pouzívat tuto webovou stránku pro distribuovaní nebo download zádného materiálu pokud nemáte povolení od príslusného vlastníka práv. Uzivatelé jsou zodpovědní za dodrzování těchto pravidel a podmínek. Owner má právo kdykoliv změnit pravidla tohoto trackeru.

    [ Script trval: 0.022 sec. ] - [ GZIP: enabled ]
    BtiTracker (1.4.8) by Btiteam
    Je zhruba 01:16

    TOPlist