Tvoj účet nieje VIP.
Preto sú tvoje funkcie a možnosti značne obmedzené.
Pre aktiváciu VIP klikni sem.

Manifest (S04)(SideA)(2022)(WebDl)(1080p)(AVC)(AAC 2.0 - Multi 3 lang)(CZ tit+MultiSub) = CSFD 70% | SkTorrent.eu

Cz-SkTorrent open Tracker, na volné zdieľanie súborov. Pridajte sa k našej komunite a získajte prístup k tisícom torrentov.

  • vysoká rýchlosť
  • úplne zdarma
  • prevažne Slovenská a Česká scéna
  • ste tu s nami už 10 rokov - Ďakujeme
  • Vitaj Guest (Login) Ako stahovat
    torrenty?
    Torrenty:
    v1 textová
    v2 obrázková
    Ako sa stat
    Uploaderom
    Online
    Filmy
    Forum
    Pravidlá
    SkTSocial
    BitTorrent
    klient
    Meno: Heslo:
    Zaregistrovat
    Po zaregistrovaní mozte volne stahovat
    Zabudol som heslo

    Manifest (S04)(SideA)(2022)(WebDl)(1080p)(AVC)(AAC 2.0 - Multi 3 lang)(CZ tit+MultiSub) = CSFD 70% Názov:Manifest (S04)(SideA)(2022)(WebDl)(1080p)(AVC)(AAC 2.0 - Multi 3 lang)(CZ tit+MultiSub) = CSFD 70% Hodnocení:N/A Stiahnut
    Pozriet Online
    Kategória:Seriál Velikost:5.9 GB BitTorrent klient
    Pridaný: Súbory:
    Skontrolován:2022-11-07 Peerov:4 (Seed: 4, Leech: 0)
    Zaner:Drama,Mysteriozni,Sci-Fi,Thriller Uploader:Uvidis, az ked budes
    VIP
    Kúp nám Pivo 1,10€

    Kúp nám Pivo

    Pridaj do zalozky
    Pridaj do zalozky





    [center]






    Movie Name: Manifest - Season 4 (2022)(Side A)(1-10)
    IMDb Rating: 7.1/10

    Quality: 1080p (WebDL)
    Language: AAC 2.0 - English , Polish
    Subtitles: Multi 11+
    Director: Romeo Tirone, Dean White
    Writers: Jeff Rake, Simran Baidwan
    Genres: Sci-fi | Drama | Mistery |


    A commercial airliner suddenly reappears after being missing for five years. As those aboard reintegrate into society, they experience guiding voices and visions of events yet to occur, and soon a deeper mystery unfolds.





    [/center]
    Format                                   : MPEG-4
    Format profile                           : Base Media
    Codec ID                                 : isom (isom/iso2/avc1/mp41)
    File size                                : 662 MiB
    Duration                                 : 48 min 43 s
    Overall bit rate mode                    : Variable
    Overall bit rate                         : 1 899 kb/s
    Collection                               : Manifest
    Season                                   : 4
    Track name                               : Přistání a vzlet
    Description                              : Michaela jde za jedním voláním a objeví tajemného černého pasažéra. Ben se odmítá vzdát svého přesvědčení. Cal vychází z úkrytu a pouští se do pátrání.
    Writing application                      : Lavf58.76.100
    Cover                                    : Yes
    Part_ID                                  : 1

    Video
    ID                                       : 1
    Format                                   : AVC
    Format/Info                              : Advanced Video Codec
    Format profile                           : High@L4
    Format settings                          : CABAC / 4 Ref Frames
    Format settings, CABAC                   : Yes
    Format settings, Reference frames        : 4 frames
    Codec ID                                 : avc1
    Codec ID/Info                            : Advanced Video Coding
    Duration                                 : 48 min 42 s
    Bit rate mode                            : Variable
    Bit rate                                 : 1 507 kb/s
    Maximum bit rate                         : 20.0 Mb/s
    Width                                    : 1 920 pixels
    Height                                   : 1 080 pixels
    Display aspect ratio                     : 16:9
    Frame rate mode                          : Constant
    Frame rate                               : 23.976 (24000/1001) FPS
    Color space                              : YUV
    Chroma subsampling                       : 4:2:0
    Bit depth                                : 8 bits
    Scan type                                : Progressive
    Bits/(Pixel*Frame)                       : 0.030
    Stream size                              : 525 MiB (79%)
    Title                                    : ?@GPAC2.1-DEV-rev6244-g8335b99ea-HEAD
    Writing library                          : x264 core 148 r2727 7d026e8
    Encoding settings                        : cabac=1 / ref=4 / deblock=1:0:0 / analyse=0x3:0x111 / me=umh / subme=10 / psy=1 / psy_rd=1.00:0.00 / mixed_ref=1 / me_range=120 / chroma_me=1 / trellis=2 / 8x8dct=1 / cqm=0 / deadzone=21,11 / fast_pskip=1 / chroma_qp_offset=-2 / threads=8 / lookahead_threads=2 / sliced_threads=0 / nr=0 / decimate=1 / interlaced=0 / bluray_compat=0 / stitchable=1 / constrained_intra=0 / bframes=16 / b_pyramid=2 / b_adapt=2 / b_bias=0 / direct=3 / weightb=1 / open_gop=0 / weightp=2 / keyint=240 / keyint_min=121 / scenecut=0 / intra_refresh=0 / rc_lookahead=240 / rc=crf / mbtree=1 / crf=24.0 / qcomp=0.50 / qpmin=6 / qpmax=51 / qpstep=4 / vbv_maxrate=20000 / vbv_bufsize=25000 / crf_max=0.0 / nal_hrd=vbr / filler=0 / ip_ratio=1.40 / aq=1:0.80
    Codec configuration box                  : avcC

    Audio #1
    ID                                       : 3
    Format                                   : AAC LC SBR
    Format/Info                              : Advanced Audio Codec Low Complexity with Spectral Band Replication
    Commercial name                          : HE-AAC
    Format settings                          : Explicit
    Codec ID                                 : mp4a-40-2
    Duration                                 : 48 min 43 s
    Bit rate mode                            : Constant
    Bit rate                                 : 128 kb/s
    Channel(s)                               : 2 channels
    Channel layout                           : L R
    Sampling rate                            : 48.0 kHz
    Frame rate                               : 23.438 FPS (2048 SPF)
    Compression mode                         : Lossy
    Stream size                              : 44.6 MiB (7%)
    Title                                    : němčina
    Language                                 : German
    Default                                  : Yes
    Alternate group                          : 2

    Audio #2
    ID                                       : 4
    Format                                   : AAC LC SBR
    Format/Info                              : Advanced Audio Codec Low Complexity with Spectral Band Replication
    Commercial name                          : HE-AAC
    Format settings                          : Explicit
    Codec ID                                 : mp4a-40-2
    Duration                                 : 48 min 43 s
    Bit rate mode                            : Constant
    Bit rate                                 : 128 kb/s
    Channel(s)                               : 2 channels
    Channel layout                           : L R
    Sampling rate                            : 48.0 kHz
    Frame rate                               : 23.438 FPS (2048 SPF)
    Compression mode                         : Lossy
    Stream size                              : 44.6 MiB (7%)
    Title                                    : angličtina [Originál]
    Language                                 : English
    Default                                  : Yes
    Alternate group                          : 3

    Audio #3
    ID                                       : 5
    Format                                   : AAC LC SBR
    Format/Info                              : Advanced Audio Codec Low Complexity with Spectral Band Replication
    Commercial name                          : HE-AAC
    Format settings                          : Explicit
    Codec ID                                 : mp4a-40-2
    Duration                                 : 48 min 43 s
    Bit rate mode                            : Constant
    Bit rate                                 : 128 kb/s
    Channel(s)                               : 2 channels
    Channel layout                           : L R
    Sampling rate                            : 48.0 kHz
    Frame rate                               : 23.438 FPS (2048 SPF)
    Compression mode                         : Lossy
    Stream size                              : 44.6 MiB (7%)
    Title                                    : polština
    Language                                 : Polish
    Default                                  : Yes
    Alternate group                          : 4

    Text #1
    ID                                       : 6
    Format                                   : Timed Text
    Muxing mode                              : sbtl
    Codec ID                                 : tx3g
    Duration                                 : 47 min 25 s
    Bit rate mode                            : Variable
    Bit rate                                 : 59 b/s
    Frame rate                               : 0.401 FPS
    Stream size                              : 20.6 KiB (0%)
    Title                                    : čeština
    Language                                 : Czech
    Default                                  : Yes
    Forced                                   : No
    Alternate group                          : 5

    Text #2
    ID                                       : 7
    Format                                   : Timed Text
    Muxing mode                              : sbtl
    Codec ID                                 : tx3g
    Duration                                 : 47 min 25 s
    Bit rate mode                            : Variable
    Bit rate                                 : 59 b/s
    Frame rate                               : 0.398 FPS
    Stream size                              : 20.4 KiB (0%)
    Title                                    : němčina
    Language                                 : German
    Default                                  : No
    Forced                                   : No
    Alternate group                          : 6

    Text #3
    ID                                       : 8
    Format                                   : Timed Text
    Muxing mode                              : sbtl
    Codec ID                                 : tx3g
    Duration                                 : 46 min 46 s
    Bit rate mode                            : Variable
    Bit rate                                 : 75 b/s
    Frame rate                               : 0.489 FPS
    Stream size                              : 25.8 KiB (0%)
    Title                                    : němčina [CC]
    Language                                 : German
    Default                                  : No
    Forced                                   : No
    Alternate group                          : 7

    Text #4
    ID                                       : 9
    Format                                   : Timed Text
    Muxing mode                              : sbtl
    Codec ID                                 : tx3g
    Duration                                 : 47 min 25 s
    Bit rate mode                            : Variable
    Bit rate                                 : 1 b/s
    Frame rate                               : 0.012 FPS
    Stream size                              : 436 Bytes (0%)
    Title                                    : German [ForcedNarrative]
    Language                                 : German
    Default                                  : No
    Forced                                   : No
    Alternate group                          : 8

    Text #5
    ID                                       : 10
    Format                                   : Timed Text
    Muxing mode                              : sbtl
    Codec ID                                 : tx3g
    Duration                                 : 46 min 46 s
    Bit rate mode                            : Variable
    Bit rate                                 : 75 b/s
    Frame rate                               : 0.489 FPS
    Stream size                              : 25.8 KiB (0%)
    Title                                    : němčina
    Language                                 : German
    Default                                  : No
    Forced                                   : No
    Alternate group                          : 9

    Text #6
    ID                                       : 11
    Format                                   : Timed Text
    Muxing mode                              : sbtl
    Codec ID                                 : tx3g
    Duration                                 : 46 min 47 s
    Bit rate mode                            : Variable
    Bit rate                                 : 70 b/s
    Frame rate                               : 0.487 FPS
    Stream size                              : 24.1 KiB (0%)
    Title                                    : angličtina [CC]
    Language                                 : English
    Default                                  : No
    Forced                                   : No
    Alternate group                          : 10

    Text #7
    ID                                       : 12
    Format                                   : Timed Text
    Muxing mode                              : sbtl
    Codec ID                                 : tx3g
    Duration                                 : 47 min 29 s
    Bit rate mode                            : Variable
    Bit rate                                 : 56 b/s
    Frame rate                               : 0.393 FPS
    Stream size                              : 19.6 KiB (0%)
    Title                                    : maďarština
    Language                                 : Hungarian
    Default                                  : No
    Forced                                   : No
    Alternate group                          : 11

    Text #8
    ID                                       : 13
    Format                                   : Timed Text
    Muxing mode                              : sbtl
    Codec ID                                 : tx3g
    Duration                                 : 2 s 420 ms
    Duration_FirstFrame                      : -2 s 419 ms
    Bit rate mode                            : Variable
    Bit rate                                 : 116 b/s
    Frame rate                               : 1.240 FPS
    Stream size                              : 35.0 Bytes (0%)
    Title                                    : Polish [ForcedNarrative]
    Language                                 : Polish
    Default                                  : No
    Forced                                   : No
    Alternate group                          : 12

    Text #9
    ID                                       : 14
    Format                                   : Timed Text
    Muxing mode                              : sbtl
    Codec ID                                 : tx3g
    Duration                                 : 47 min 25 s
    Bit rate mode                            : Variable
    Bit rate                                 : 53 b/s
    Frame rate                               : 0.406 FPS
    Stream size                              : 18.4 KiB (0%)
    Title                                    : polština
    Language                                 : Polish
    Default                                  : No
    Forced                                   : No
    Alternate group                          : 13

    Text #10
    ID                                       : 15
    Format                                   : Timed Text
    Muxing mode                              : sbtl
    Codec ID                                 : tx3g
    Duration                                 : 47 min 25 s
    Bit rate mode                            : Variable
    Bit rate                                 : 86 b/s
    Frame rate                               : 0.409 FPS
    Stream size                              : 30.0 KiB (0%)
    Title                                    : ukrajinština
    Language                                 : Ukrainian
    Default                                  : No
    Forced                                   : No
    Alternate group                          : 14





    ONLINE

    ZDE KLIKNI PRO SLEDOVÁNÍ





    alesek2012,

    + Pridaj vlastnu verziu tohto torrentu +


    Upozornenie:
    Ziadny zo zobrazených súborov sa nenachádza na tomto serveri. Server slúzi len k síreniu vlastnorucne vytvorených aplikácií, videí, hudby ai. Autori stránok nenesú ziadnu zodpovednost za zverejnené odkazy, komentáre a obsah súborov. Vsetky komentáre, odkazy, súbory ktoré by svojou povahou mohli byt v rozpore zo zákonmi sem vkladáte na vlastnú zodpovednost. Autori stránok si vyhradzujú právo cenzúry odkazov, komentárov príp. súborov, ktoré by svojou povahou mohli byt v rozpore zo zákonmi a dobrými mravmi. Dodrzujte pravidlá!


    No comments...


    Back

    Na serveru se nenalézají zádne soubory. Za odkazy jsou výhradně zodpovědní uzivatelé a návstěvníci tohoto trackeru. Administrátor není zodpovědný za pridaný obsah ani za skody zpusobené uzivateli. Nesmíte pouzívat tuto webovou stránku pro distribuovaní nebo download zádného materiálu pokud nemáte povolení od príslusného vlastníka práv. Uzivatelé jsou zodpovědní za dodrzování těchto pravidel a podmínek. Owner má právo kdykoliv změnit pravidla tohoto trackeru.

    [ Script trval: 0.084 sec. ] - [ GZIP: enabled ]
    Je zhruba 09:45
    memcache

    TOPlist