Tvoj účet nieje VIP.
Preto sú tvoje funkcie a možnosti značne obmedzené.
Pre aktiváciu VIP klikni sem.

Manzelska klec / Married Life (2007)(HD)(720p)(x264)(EN-CZ) = CSFD 56% | SkTorrent.eu

Cz-SkTorrent open Tracker, na volné zdielanie súborov. Pridajte sa k nasej komunite a získajte pristup k tisícom torrentov.

  • vysoká rýchlost
  • úplne zdarma
  • prevazne Slovenska a Ceska scena
  • ste tu s nami uz 5 rokov - Dakujeme
  • Vitaj Guest (Login) Ako stahovat
    torrenty?
    Torrenty:
    v1 textová
    v2 obrázková
    v3 online filmy
    Ako sa stat
    Uploaderom
    Online
    Filmy
    Forum
    Pravidlá
    BitTorrent
    klient
    Meno: Heslo:
    Zaregistrovat
    Po zaregistrovaní mozte volne stahovat
    Zabudol som heslo

    Torrent's details
    Manzelska klec / Married Life (2007)(HD)(720p)(x264)(EN-CZ) = CSFD 56% Názov:Manzelska klec / Married Life (2007)(HD)(720p)(x264)(EN-CZ) = CSFD 56% Hodnocení:N/A Stiahnut
    Pozriet Online
    Kategória:Filmy CZ/SK dabing Velikost:1.5 GB BitTorrent klient
    Pridaný: Súbory:
    Skontrolován:2022-06-28 Peerov:28 (Seed: 28, Leech: 0)
    Zaner:Drama,Komedie,Krimi,Romanticky Uploader:Uvidis, az ked budes
    VIP
    Kúp nám Pivo 1,10€

    Kúp nám Pivo
    Podporte nas na Facebooku !
    Pridaj do zalozky
    Pridaj do zalozky






    [center]






    Movie Name: Married Life (2007)
    IMDb Rating: 6.2/10

    Quality: 720p (Webrip/DVDrip)
    Language: English (AAC 2.0) Czech (AAC 2.0)
    Subtitles: -
    Director: Ira Sachs
    Writers: Ira Sachs (screenplay) Oren Moverman (screenplay) John Bingham (book "Five Roundabouts to Heaven")
    Genres: Biography | Crime | Drama |


    A 1940s-set drama where an adulterous man plots his wife's death instead of putting her through the humiliation of a divorce.
    ***
    Rozvod ve čtyřicátých letech 20. století? Nemožné! A tak se Harry (Chris Cooper) rozhodne, že svůj manželský trojúhelník vyřeší jinak - aby manželku nezostudil, prokáže jí laskavost a zabije ji. Jenže je tu ještě jeho šarmantní kamarád Richard ((Pierce Brosnan - ))…
    Ve čtyřicátých letech minulého století byl rozvod společensky nepřijatelný. Proto Harry Allen (Chris Cooper) vede dvojí život - po boku své ženy Pat (Patricia Clarksonová) a zároveň žije s další, podstatně mladší Kay (Rachel McAdamsová). Dlouhodobě neperspektivní manželství je však přeci jen nutné nějak ukončit. A protože Harry je charakter a nechce manželku zostudit, rozhodne se, že jí prokáže laskavost - zabije ji. Do milostného trojúhelníku ovšem vstupuje Harryho dlouholetý přítel, pohledný gentleman ve středních letech Richard ((Pierce Brosnan - )), který osudovými kartami výrazně zamíchá... Romantické komediální drama o neodolatelné moci a šílenství lásky režíroval Ira Sachs.






    [/center]

    Format                                   : Matroska
    Format version                           : Version 4
    File size                                : 1.45 GiB
    Duration                                 : 1 h 27 min
    Overall bit rate                         : 2 380 kb/s
    Movie name                               : Married Life (2007)(HD)(720p)(x264)(EN-CZ) PHDTeam
    Encoded date                             : UTC 2022-06-12 18:50:48
    Writing application                      : mkvmerge v68.0.0 ('The Curtain') 64-bit
    Writing library                          : libebml v1.4.2 + libmatroska v1.6.4 / Lavf58.44.100

    Video
    ID                                       : 1
    Format                                   : AVC
    Format/Info                              : Advanced Video Codec
    Format profile                           : Main@L4.2
    Format settings                          : CABAC / 1 Ref Frames
    Format settings, CABAC                   : Yes
    Format settings, Reference frames        : 1 frame
    Format settings, GOP                     : M=1, N=30
    Codec ID                                 : V_MPEG4/ISO/AVC
    Duration                                 : 1 h 27 min
    Bit rate                                 : 2 111 kb/s
    Width                                    : 1 280 pixels
    Height                                   : 720 pixels
    Display aspect ratio                     : 16:9
    Frame rate mode                          : Constant
    Frame rate                               : 30.000 FPS
    Standard                                 : Component
    Color space                              : YUV
    Chroma subsampling                       : 4:2:0
    Bit depth                                : 8 bits
    Scan type                                : Progressive
    Bits/(Pixel*Frame)                       : 0.076
    Stream size                              : 1.29 GiB (89%)
    Title                                    : Married Life (2007)(HD)(720p)(x264)(EN-CZ) PHDTeam
    Default                                  : Yes
    Forced                                   : No
    Color range                              : Full
    colour_range_Original                    : Limited

    Audio #1
    ID                                       : 2
    Format                                   : AAC LC
    Format/Info                              : Advanced Audio Codec Low Complexity
    Codec ID                                 : A_AAC-2
    Duration                                 : 1 h 27 min
    Bit rate                                 : 128 kb/s
    Channel(s)                               : 2 channels
    Channel layout                           : L R
    Sampling rate                            : 44.1 kHz
    Frame rate                               : 43.066 FPS (1024 SPF)
    Compression mode                         : Lossy
    Delay relative to video                  : -46 ms
    Stream size                              : 79.8 MiB (5%)
    Language                                 : English
    Default                                  : Yes
    Forced                                   : No

    Audio #2
    ID                                       : 3
    Format                                   : AAC LC
    Format/Info                              : Advanced Audio Codec Low Complexity
    Codec ID                                 : A_AAC-2
    Duration                                 : 1 h 27 min
    Bit rate                                 : 128 kb/s
    Channel(s)                               : 2 channels
    Channel layout                           : L R
    Sampling rate                            : 44.1 kHz
    Frame rate                               : 43.066 FPS (1024 SPF)
    Compression mode                         : Lossy
    Delay relative to video                  : -46 ms
    Stream size                              : 79.8 MiB (5%)
    Language                                 : Czech
    Default                                  : No
    Forced                                   : No











    luboskopavol,

    + Pridaj vlastnu verziu tohto torrentu +


    Upozornenie:
    Ziadny zo zobrazených súborov sa nenachádza na tomto serveri. Server slúzi len k síreniu vlastnorucne vytvorených aplikácií, videí, hudby ai. Autori stránok nenesú ziadnu zodpovednost za zverejnené odkazy, komentáre a obsah súborov. Vsetky komentáre, odkazy, súbory ktoré by svojou povahou mohli byt v rozpore zo zákonmi sem vkladáte na vlastnú zodpovednost. Autori stránok si vyhradzujú právo cenzúry odkazov, komentárov príp. súborov, ktoré by svojou povahou mohli byt v rozpore zo zákonmi a dobrými mravmi. Dodrzujte pravidlá!


    No comments...


    Back

    Na serveru se nenalézají zádne soubory. Za odkazy jsou výhradně zodpovědní uzivatelé a návstěvníci tohoto trackeru. Administrátor není zodpovědný za pridaný obsah ani za skody zpusobené uzivateli. Rozsirovat stránku nebo její obsah bez souhlasu ownera je zakázano. Nesmíte pouzívat tuto webovou stránku pro distribuovaní nebo download zádného materiálu pokud nemáte povolení od príslusného vlastníka práv. Uzivatelé jsou zodpovědní za dodrzování těchto pravidel a podmínek. Owner má právo kdykoliv změnit pravidla tohoto trackeru.

    [ Script trval: 0.025 sec. ] - [ GZIP: enabled ]
    Je zhruba 03:10
    sql

    TOPlist