Tvoj účet nieje VIP.
Preto sú tvoje funkcie a možnosti značne obmedzené.
Pre aktiváciu VIP klikni sem.

Matrix / The Matrix - Trilogy (1999-2003)(1080p)(Remastered)(CZ-SK-EN) = CSFD 90% | SkTorrent.eu

Cz-SkTorrent open Tracker, na volné zdielanie súborov. Pridajte sa k nasej komunite a získajte pristup k tisícom torrentov.

  • vysoká rýchlost
  • úplne zdarma
  • prevazne Slovenska a Ceska scena
  • ste tu s nami uz 5 rokov - Dakujeme
  • Vitaj Guest (Login) Ako stahovat
    torrenty?
    Torrenty:
    v1 textová
    v2 obrázková
    v3 online filmy
    Ako sa stat
    Uploaderom
    Online
    Filmy
    Forum
    Pravidlá
    BitTorrent
    klient
    Meno: Heslo:
    Zaregistrovat
    Po zaregistrovaní mozte volne stahovat
    Zabudol som heslo

    Torrent's details
    Matrix / The Matrix - Trilogy (1999-2003)(1080p)(Remastered)(CZ-SK-EN) = CSFD 90% Názov:Matrix / The Matrix - Trilogy (1999-2003)(1080p)(Remastered)(CZ-SK-EN) = CSFD 90% Hodnocení: Stiahnut
    Pozriet Online
    Kategória:HD Filmy Velikost:14.7 GB BitTorrent klient
    Pridaný: Súbory:
    Skontrolován:2021-06-16 Peerov:16 (Seed: 16, Leech: 0)
    Zaner:Akcni,Sci-Fi Uploader:Uvidis, az ked budes
    VIP
    Kúp nám Pivo 1,10€

    Kúp nám Pivo
    Podporte nas na Facebooku !
    Pridaj do zalozky
    Pridaj do zalozky








    Matrix / The Matrix - Trilogy (1999-2003)(Remastered)
    BluRay rip CZ , SK a 2x EN púvodní dabing + CZ tit

                   










    The Matrix
    Akční / Sci-Fi
    USA, 1999, 136 min
    Režie: Lilly Wachowski, Lana Wachowski
    Scénář: Lilly Wachowski, Lana Wachowski
    Kamera: Bill Pope
    Hudba: Don Davis
    Hrají: (Keanu Reeves - ), Laurence Fishburne, Carrie-Anne Moss, Hugo Weaving, Gloria Foster, Joe Pantoliano, Belinda McClory, Robert Taylor
    Matrix Reloaded
    Akční / Sci-Fi
    USA / Austrálie, 2003, 138 min
    Matrix Revolutions
    Akční / Sci-Fi
    USA / Austrálie, 2003, 129 min





    The Matrix
    Thomas Anderson žije dvojím životem, ve dne pracuje v softwarové firmě jako počítačový expert, zároveň je ale obávaný hacker Neo. Spojení s ním naváže Morfeus, pro agenty Matrixu je teroristou, pro hrstku svých stoupenců, s nimiž žije na vesmírné lodi, je zachráncem civilizace. Společně se snaží proti Matrixu, bojovat. Morfeus unese Thomase do své lodi. Je si téměř jistý, že právě on je tím vyvoleným. Implantováním vědomostí do mozku je Thomas připraven projít speciálním výcvikem, aby mohl ovládnout virtuální realitu Matrixu a tím zachránit civilizaci. Na výpravě do Matrixu se ale ocitnou v pasti, kterou pomohl nastražit zrádce v jejich řadách. Morfeus padne do rukou brutálních agentů. Aby nevyzradil agentům důležité kódy, chystá se ho jeden z rebelů odpojit. Neo tomu zabrání a společně s Trinity se vydá zajatého muže zachránit
    Matrix Reloaded
    Druhé pokračování trilogie Matrix nás opět zavede do temného světa budoucnosti ovládaného stroji. Lidstvo stále trpí v otroctví virtuální reality, z kterého ho může osvobodit jen Vyvolený. Nea s Morpheem a Trinity čeká boj s armádou strojů a jejich arzenálem počítačově nelidských schopností a zbraní. Pokud ale chtějí zastavit zotročování lidstva, není jiná možnost než boj na život a na smrt. Nezbývá jim nic jiného než proniknout hluboko do struktur Matrixu a během 72 hodin objevit a zlikvidovat centrum Zion i s jeho pomocnými jednotkami. Neo ve svých temných nočních můrách vidí, že Trinitiným osudem je smrt. Dokáže se znovu vzepřít osudu a svou mocí zastavit nekonečné útoky strojů?
    Matrix Revolutions
    Neo je, poté co se mu podařilo zastavit několik chobotniček pouze silou vůle, v hlubokém bezvědomí a odpočívá na lodi vedle dalšího záhadného pacienta, který jako jediný přežil nepovedený protiútok zionských lodí. Kapitán lodi muže podezírá ze zrady a nemůže se dočkat, až se probudí, aby ho mohl vyslechnout. Morpheus a Trinity si dělají starost o Nea. Jeho stav totiž mnohem více než bezvědomí připomíná stav člověka připojeného k Matrixu, přestože zjevně připojený není. Nedbají pochybovačných názorů kapitána a vydávají se do Matrixu, aby si nechali poradit od Vědmy, co se Neovi stalo. Ta jim prozradí, že chobotničky nevyřadil z boje náhodou. Jako vyvolený má obrovské schopnosti, které zatím dokáže plně ovládat, navíc není nijak omezen hranicemi mezi jednotlivými světy. Díky střetu s chobotničkami se nedopatřením dostal do pasti mezi skutečností a Matrixem. Posádka lodi mezitím objeví Niobe a její nepojízdnou loď, kterou uvede znovu do chodu. Velitel zionských obranných sil Lock o tom nemá žádné zprávy a považuje všechny tři lodě, které zůstali mimo Zion za ztracené...








    Format                                   : Matroska
    Format version                           : Version 4
    File size                                : 4.90 GiB
    Duration                                 : 2 h 16 min
    Overall bit rate                         : 5 148 kb/s
    Movie name                               : Matrix 1 (1999)(1080p)(Remastered)(CZ/EN/SK) PHDTeam 2021
    Encoded date                             : UTC 2021-06-16 10:46:10
    Writing application                      : mkvmerge v58.0.0 ('Supper's Ready') 64-bit
    Writing library                          : libebml v1.4.2 + libmatroska v1.6.4

    Video
    ID                                       : 1
    Format                                   : AVC
    Format/Info                              : Advanced Video Codec
    Format profile                           : Main@L4.2
    Format settings                          : CABAC / 4 Ref Frames
    Format settings, CABAC                   : Yes
    Format settings, Reference frames        : 4 frames
    Codec ID                                 : V_MPEG4/ISO/AVC
    Duration                                 : 2 h 16 min
    Bit rate                                 : 3 802 kb/s
    Width                                    : 1 920 pixels
    Height                                   : 1 080 pixels
    Display aspect ratio                     : 16:9
    Frame rate mode                          : Constant
    Frame rate                               : 23.976 (24000/1001) FPS
    Color space                              : YUV
    Chroma subsampling                       : 4:2:0
    Bit depth                                : 8 bits
    Scan type                                : Progressive
    Bits/(Pixel*Frame)                       : 0.076
    Stream size                              : 3.62 GiB (74%)
    Title                                    : Matrix 1 1999 Full HD Cz,En.SK PHDTeam
    Writing library                          : x264 core 157 r2935 545de2f
    Encoding settings                        : cabac=1 / ref=2 / deblock=1:-1:-1 / analyse=0x1:0x111 / me=hex / subme=6 / psy=1 / psy_rd=1.00:0.15 / mixed_ref=1 / me_range=16 / chroma_me=1 / trellis=1 / 8x8dct=0 / cqm=0 / deadzone=21,11 / fast_pskip=1 / chroma_qp_offset=-3 / threads=18 / lookahead_threads=3 / sliced_threads=0 / nr=0 / decimate=1 / interlaced=0 / bluray_compat=0 / constrained_intra=0 / bframes=3 / b_pyramid=2 / b_adapt=1 / b_bias=0 / direct=1 / weightb=1 / open_gop=0 / weightp=1 / keyint=240 / keyint_min=24 / scenecut=40 / intra_refresh=0 / rc_lookahead=30 / rc=2pass / mbtree=1 / bitrate=3802 / ratetol=1.0 / qcomp=0.60 / qpmin=0 / qpmax=69 / qpstep=4 / cplxblur=20.0 / qblur=0.5 / vbv_maxrate=50000 / vbv_bufsize=62500 / nal_hrd=none / filler=0 / ip_ratio=1.40 / aq=1:1.00
    Language                                 : Multiple languages
    Default                                  : Yes
    Forced                                   : No
    Color range                              : Limited
    Color primaries                          : BT.709
    Transfer characteristics                 : BT.709
    Matrix coefficients                      : BT.709

    Audio #1
    ID                                       : 2
    Format                                   : AC-3
    Format/Info                              : Audio Coding 3
    Commercial name                          : Dolby Digital
    Codec ID                                 : A_AC3
    Duration                                 : 2 h 16 min
    Bit rate mode                            : Constant
    Bit rate                                 : 384 kb/s
    Channel(s)                               : 6 channels
    Channel layout                           : L R C LFE Ls Rs
    Sampling rate                            : 48.0 kHz
    Frame rate                               : 31.250 FPS (1536 SPF)
    Compression mode                         : Lossy
    Delay relative to video                  : -5 ms
    Stream size                              : 374 MiB (7%)
    Title                                    : DD 5.1 384 kb/s
    Language                                 : Czech
    Service kind                             : Complete Main
    Default                                  : Yes
    Forced                                   : No

    Audio #2
    ID                                       : 3
    Format                                   : AC-3
    Format/Info                              : Audio Coding 3
    Commercial name                          : Dolby Digital
    Codec ID                                 : A_AC3
    Duration                                 : 2 h 16 min
    Bit rate mode                            : Constant
    Bit rate                                 : 384 kb/s
    Channel(s)                               : 6 channels
    Channel layout                           : L R C LFE Ls Rs
    Sampling rate                            : 48.0 kHz
    Frame rate                               : 31.250 FPS (1536 SPF)
    Compression mode                         : Lossy
    Delay relative to video                  : -5 ms
    Stream size                              : 374 MiB (7%)
    Title                                    : DD 5.1 384 kb/s
    Language                                 : English
    Service kind                             : Complete Main
    Default                                  : No
    Forced                                   : No

    Audio #3
    ID                                       : 4
    Format                                   : AC-3
    Format/Info                              : Audio Coding 3
    Commercial name                          : Dolby Digital
    Codec ID                                 : A_AC3
    Duration                                 : 2 h 16 min
    Bit rate mode                            : Constant
    Bit rate                                 : 192 kb/s
    Channel(s)                               : 2 channels
    Channel layout                           : L R
    Sampling rate                            : 48.0 kHz
    Frame rate                               : 31.250 FPS (1536 SPF)
    Compression mode                         : Lossy
    Delay relative to video                  : -5 ms
    Stream size                              : 187 MiB (4%)
    Title                                    : DD 2.0 SK
    Language                                 : Slovak
    Service kind                             : Complete Main
    Default                                  : No
    Forced                                   : No

    Audio #4
    ID                                       : 5
    Format                                   : AC-3
    Format/Info                              : Audio Coding 3
    Commercial name                          : Dolby Digital
    Codec ID                                 : A_AC3
    Duration                                 : 2 h 16 min
    Bit rate mode                            : Constant
    Bit rate                                 : 384 kb/s
    Channel(s)                               : 6 channels
    Channel layout                           : L R C LFE Ls Rs
    Sampling rate                            : 48.0 kHz
    Frame rate                               : 31.250 FPS (1536 SPF)
    Compression mode                         : Lossy
    Delay relative to video                  : -5 ms
    Stream size                              : 374 MiB (7%)
    Title                                    : DD 5.1 EN
    Language                                 : English
    Service kind                             : Complete Main
    Default                                  : No
    Forced                                   : No

    Text
    ID                                       : 6
    Format                                   : UTF-8
    Codec ID                                 : S_TEXT/UTF8
    Codec ID/Info                            : UTF-8 Plain Text
    Duration                                 : 2 h 7 min
    Bit rate                                 : 38 b/s
    Count of elements                        : 1382
    Stream size                              : 35.7 KiB (0%)
    Title                                    : Full
    Language                                 : Czech
    Default                                  : No
    Forced                                   : No



































    llebo4, mattess10, Stenlykubik, alibaba147, Trismegistos, Jara72, SpasyCZE, Mackeess,

    + Pridaj vlastnu verziu tohto torrentu +


    Upozornenie:
    Ziadny zo zobrazených súborov sa nenachádza na tomto serveri. Server slúzi len k síreniu vlastnorucne vytvorených aplikácií, videí, hudby ai. Autori stránok nenesú ziadnu zodpovednost za zverejnené odkazy, komentáre a obsah súborov. Vsetky komentáre, odkazy, súbory ktoré by svojou povahou mohli byt v rozpore zo zákonmi sem vkladáte na vlastnú zodpovednost. Autori stránok si vyhradzujú právo cenzúry odkazov, komentárov príp. súborov, ktoré by svojou povahou mohli byt v rozpore zo zákonmi a dobrými mravmi. Dodrzujte pravidlá!


    No comments...


    Back

    Na serveru se nenalézají zádne soubory. Za odkazy jsou výhradně zodpovědní uzivatelé a návstěvníci tohoto trackeru. Administrátor není zodpovědný za pridaný obsah ani za skody zpusobené uzivateli. Rozsirovat stránku nebo její obsah bez souhlasu ownera je zakázano. Nesmíte pouzívat tuto webovou stránku pro distribuovaní nebo download zádného materiálu pokud nemáte povolení od príslusného vlastníka práv. Uzivatelé jsou zodpovědní za dodrzování těchto pravidel a podmínek. Owner má právo kdykoliv změnit pravidla tohoto trackeru.

    [ Script trval: 0.028 sec. ] - [ GZIP: enabled ]
    BtiTracker (1.4.8) by Btiteam
    Je zhruba 23:24

    TOPlist