Tvoj účet nieje VIP.
Preto sú tvoje funkcie a možnosti značne obmedzené.
Pre aktiváciu VIP klikni sem.

Meda a lumici / Grizzy & les Lemmings 2 seria (2017)(EN)[WEB-DL][1080p] = CSFD 68% | SkTorrent.eu

Cz-SkTorrent open Tracker, na volné zdieľanie súborov. Pridajte sa k našej komunite a získajte prístup k tisícom torrentov.

  • vysoká rýchlosť
  • úplne zdarma
  • prevažne Slovenská a Česká scéna
  • ste tu s nami už 10 rokov - Ďakujeme
  • Vitaj Guest (Login) Ako stahovat
    torrenty?
    Torrenty:
    v1 textová
    v2 obrázková
    Ako sa stat
    Uploaderom
    Online
    Filmy
    Forum
    Pravidlá
    SkTSocial
    BitTorrent
    klient
    Meno: Heslo:
    Zaregistrovat
    Po zaregistrovaní mozte volne stahovat
    Zabudol som heslo

    Meda a lumici / Grizzy & les Lemmings  2 seria (2017)(EN)[WEB-DL][1080p] = CSFD 68% Názov:Meda a lumici / Grizzy & les Lemmings 2 seria (2017)(EN)[WEB-DL][1080p] = CSFD 68% Hodnocení:N/A Stiahnut
    Pozriet Online
    Kategória:Seriál - eng Velikost:20.1 GB BitTorrent klient
    Pridaný: Súbory:
    Skontrolován:2022-11-30 Peerov:6 (Seed: 4, Leech: 2)
    Zaner:Animovany,Komedie,Rodinny Uploader:Uvidis, az ked budes
    VIP
    Kúp nám Pivo 1,10€

    Kúp nám Pivo

    Pridaj do zalozky
    Pridaj do zalozky







    Jazyk: (bez rozhovorov)
    Lokalizacia: eng
    Dlzka: 78x7min
    Rok vidania: Francuzko 2017
    Video: V_MPEG4/ISO/AVC
    Zvuk: A_AAC-2
    Titulky: bez titulkov
    Zaner: Animovaný / Komédia / Rodinný






    „Dobrého“ medveďa trápi partia pojašených hlodavcou a o zábavu je okamžite postarané...



    Video Audio

    General
    Complete name:Grizzy.and.the.Lemmings
    Format: Matroska
    Format version: Version 4
    File size: 267 MiB
    Duration: 7 min 18 s
    Overall bit rate: 5 110 kb/s
    Encoded date: UTC 2019-02-04 21:53:04
    Writing application: mkvmerge v29.0.0 ('Like It Or Not') 64-bit
    Writing library: libebml v1.3.6 + libmatroska v1.4.9
    Video
    ID: 1
    Format: AVC
    Format/Info: Advanced Video Codec
    Format profile: Main@L4
    Format settings: CABAC / 3 Ref Frames
    Format settings, CABAC: Yes
    Format settings, Reference frames: 3 frames
    Codec ID: V_MPEG4/ISO/AVC
    Duration: 7 min 18 s
    Bit rate mode: Constant
    Bit rate: 5 000 kb/s
    Width: 1 920 pixels
    Height: 1 080 pixels
    Display aspect ratio: 16:9
    Frame rate mode: Constant
    Frame rate: 23.976 (24000/1001) FPS
    Standard: Component
    Color space: YUV
    Chroma subsampling: 4:2:0
    Bit depth: 8 bits
    Scan type: Progressive
    Bits/(Pixel*Frame): 0.101
    Stream size: 262 MiB (98%)
    Language: English
    Default: Yes
    Forced: No
    Color range: Limited
    Color primaries: BT.709
    Transfer characteristics: BT.709
    Matrix coefficients: BT.709

    Audio
    ID: 2
    Format: AAC LC
    Format/Info: Advanced Audio Codec Low Complexity
    Codec ID: A_AAC-2
    Duration: 7 min 18 s
    Bit rate: 93.4 kb/s
    Channel(s): 2 channels
    Channel layout: L R
    Sampling rate: 48.0 kHz
    Frame rate: 46.875 FPS (1024 SPF)
    Compression mode: Lossy
    Delay relative to video: -33 ms
    Stream size: 4.89 MiB (2%)
    Language: English
    Default: Yes
    Forced: No




    -









    zac22,

    + Pridaj vlastnu verziu tohto torrentu +


    Upozornenie:
    Ziadny zo zobrazených súborov sa nenachádza na tomto serveri. Server slúzi len k síreniu vlastnorucne vytvorených aplikácií, videí, hudby ai. Autori stránok nenesú ziadnu zodpovednost za zverejnené odkazy, komentáre a obsah súborov. Vsetky komentáre, odkazy, súbory ktoré by svojou povahou mohli byt v rozpore zo zákonmi sem vkladáte na vlastnú zodpovednost. Autori stránok si vyhradzujú právo cenzúry odkazov, komentárov príp. súborov, ktoré by svojou povahou mohli byt v rozpore zo zákonmi a dobrými mravmi. Dodrzujte pravidlá!


    No comments...


    Back

    Na serveru se nenalézají zádne soubory. Za odkazy jsou výhradně zodpovědní uzivatelé a návstěvníci tohoto trackeru. Administrátor není zodpovědný za pridaný obsah ani za skody zpusobené uzivateli. Nesmíte pouzívat tuto webovou stránku pro distribuovaní nebo download zádného materiálu pokud nemáte povolení od príslusného vlastníka práv. Uzivatelé jsou zodpovědní za dodrzování těchto pravidel a podmínek. Owner má právo kdykoliv změnit pravidla tohoto trackeru.

    [ Script trval: 0.104 sec. ] - [ GZIP: enabled ]
    Je zhruba 18:54
    memcache

    TOPlist