Tvoj účet nieje VIP.
Preto sú tvoje funkcie a možnosti značne obmedzené.
Pre aktiváciu VIP klikni sem.

Michael (1996)(CZ/EN)[1080p] = CSFD 62% | SkTorrent.eu

Cz-SkTorrent open Tracker, na volné zdielanie súborov. Pridajte sa k nasej komunite a získajte pristup k tisícom torrentov.

  • vysoká rýchlost
  • úplne zdarma
  • prevazne Slovenska a Ceska scena
  • ste tu s nami uz 5 rokov - Dakujeme
  • Vitaj Guest (Login) Ako stahovat
    torrenty?
    Torrenty:
    v1 textová
    v2 obrázková
    v3 online filmy
    Ako sa stat
    Uploaderom
    Online
    Filmy
    Forum
    Pravidlá
    BitTorrent
    klient
    Meno: Heslo:
    Zaregistrovat
    Po zaregistrovaní mozte volne stahovat
    Zabudol som heslo

    Torrent's details
    Michael (1996)(CZ/EN)[1080p] = CSFD 62% Názov:Michael (1996)(CZ/EN)[1080p] = CSFD 62% Hodnocení: Stiahnut
    Pozriet Online
    Kategória:HD Filmy Velikost:9.5 GB BitTorrent klient
    Pridaný: Súbory:
    Skontrolován:2020-05-10 Peerov:2 (Seed: 2, Leech: 0)
    Zaner:Drama,Fantasy,Komedie,Romanticky Uploader:Uvidis, az ked budes
    VIP
    Kúp nám Pivo 1,10€

    Kúp nám Pivo
    Podporte nas na Facebooku !
    Pridaj do zalozky
    Pridaj do zalozky




    Michael

  •  Michael
  •  Michael

    Komedie / Drama / Fantasy / Romantický
    USA, 1996,
    105 min

    Režie: Nora Ephron
    Scénář: Nora EphronDelia EphronPeter Dexter
    Kamera: John Lindley
    Hudba: Randy Newman
    Hrají: John TravoltaAndie MacDowellWilliam HurtBob HoskinsRobert PastorelliJean StapletonTeri GarrWallace LanghamJoey Lauren AdamsCarla GuginoRichard SchiffMargaret TravoltaStephen BrutonTom Woodruff Jr.Blue DeckertDianne DreyerJames N. HarrellTom HodgesCatherine Lloyd Burns
    (další profese)


    https://www.csfd.cz/film/2579-michael/prehled/



    Anděl s cigaretou, plechovkou piva a solidně pučícím panděrem? Přesně tak - a navíc s křídly! Archanděl Michael se v podobě obtloustlého hromotluka s velice zemitými způsoby vydal na Zemi, aby tu pomohl dvěma skeptickým duším najít ztracenou cestu - k sobě, ke smíchu a především k lásce.(oficiální text distributora)


    General
    Unique ID                      : 110882952308360196193519229539488660763 (0x536B47A21AD58A85A530AD570F007D1B)
    Complete name                  : F:\FILM US\Michael (1996) WDL.mkv
    Format                         : Matroska
    Format version                 : Version 4
    File size                      : 9.49 GiB
    Duration                       : 1 h 45 min
    Overall bit rate mode          : Variable
    Overall bit rate               : 12.9 Mb/s
    Movie name                     : Michael (1996)
    Encoded date                   : UTC 2018-09-25 19:36:44
    Writing application            : mkvmerge v26.0.0 ('In The Game') 64-bit
    Writing library                : libebml v1.3.6 + libmatroska v1.4.9

    Video
    ID                             : 1
    Format                         : AVC
    Format/Info                    : Advanced Video Codec
    Format profile                 : High@L4
    Format settings                : CABAC / 4 Ref Frames
    Format settings, CABAC         : Yes
    Format settings, Reference fra : 4 frames
    Codec ID                       : V_MPEG4/ISO/AVC
    Duration                       : 1 h 45 min
    Bit rate mode                  : Variable
    Bit rate                       : 11.9 Mb/s
    Maximum bit rate               : 15.0 Mb/s
    Width                          : 1 920 pixels
    Height                         : 1 080 pixels
    Display aspect ratio           : 16:9
    Frame rate mode                : Constant
    Frame rate                     : 23.976 (24000/1001) FPS
    Color space                    : YUV
    Chroma subsampling             : 4:2:0
    Bit depth                      : 8 bits
    Scan type                      : Progressive
    Bits/(Pixel*Frame)             : 0.240
    Stream size                    : 8.75 GiB (92%)
    Title                          : WEB-DL
    Default                        : Yes
    Forced                         : No
    Color range                    : Limited
    Color primaries                : BT.709
    Transfer characteristics       : BT.709
    Matrix coefficients            : BT.709

    Audio #1
    ID                             : 2
    Format                         : E-AC-3
    Format/Info                    : Enhanced AC-3
    Commercial name                : Dolby Digital Plus
    Codec ID                       : A_EAC3
    Duration                       : 1 h 45 min
    Bit rate mode                  : Constant
    Bit rate                       : 640 kb/s
    Channel(s)                     : 6 channels
    Channel layout                 : L R C LFE Ls Rs
    Sampling rate                  : 48.0 kHz
    Frame rate                     : 31.250 FPS (1536 SPF)
    Compression mode               : Lossy
    Delay relative to video        : 8 ms
    Stream size                    : 481 MiB (5%)
    Title                          : DD 5.1
    Language                       : English
    Service kind                   : Complete Main
    Default                        : No
    Forced                         : No

    Audio #2
    ID                             : 3
    Format                         : AC-3
    Format/Info                    : Audio Coding 3
    Commercial name                : Dolby Digital
    Codec ID                       : A_AC3
    Duration                       : 1 h 42 min
    Bit rate mode                  : Constant
    Bit rate                       : 384 kb/s
    Channel(s)                     : 2 channels
    Channel layout                 : L R
    Sampling rate                  : 44.1 kHz
    Frame rate                     : 28.711 FPS (1536 SPF)
    Bit depth                      : 16 bits
    Compression mode               : Lossy
    Delay relative to video        : 1 s 180 ms
    Stream size                    : 281 MiB (3%)
    Title                          : DD 2.0
    Language                       : Czech
    Service kind                   : Complete Main
    Default                        : Yes
    Forced                         : No

    Text #1
    ID                             : 4
    Format                         : UTF-8
    Codec ID                       : S_TEXT/UTF8
    Codec ID/Info                  : UTF-8 Plain Text
    Duration                       : 1 h 38 min
    Bit rate                       : 74 b/s
    Count of elements              : 1156
    Stream size                    : 53.4 KiB (0%)
    Language                       : Russian
    Default                        : No
    Forced                         : No

    Text #2
    ID                             : 5
    Format                         : UTF-8
    Codec ID                       : S_TEXT/UTF8
    Codec ID/Info                  : UTF-8 Plain Text
    Duration                       : 1 h 35 min
    Bit rate                       : 47 b/s
    Count of elements              : 1156
    Stream size                    : 33.2 KiB (0%)
    Language                       : English
    Default                        : No
    Forced                         : No




    CZ dabing


  • Upozornenie:
    Ziadny zo zobrazených súborov sa nenachádza na tomto serveri. Server slúzi len k síreniu vlastnorucne vytvorených aplikácií, videí, hudby ai. Autori stránok nenesú ziadnu zodpovednost za zverejnené odkazy, komentáre a obsah súborov. Vsetky komentáre, odkazy, súbory ktoré by svojou povahou mohli byt v rozpore zo zákonmi sem vkladáte na vlastnú zodpovednost. Autori stránok si vyhradzujú právo cenzúry odkazov, komentárov príp. súborov, ktoré by svojou povahou mohli byt v rozpore zo zákonmi a dobrými mravmi. Dodrzujte pravidlá!


    No comments...


    Back

    Na serveru se nenalézají zádne soubory. Za odkazy jsou výhradně zodpovědní uzivatelé a návstěvníci tohoto trackeru. Administrátor není zodpovědný za pridaný obsah ani za skody zpusobené uzivateli. Rozsirovat stránku nebo její obsah bez souhlasu ownera je zakázano. Nesmíte pouzívat tuto webovou stránku pro distribuovaní nebo download zádného materiálu pokud nemáte povolení od príslusného vlastníka práv. Uzivatelé jsou zodpovědní za dodrzování těchto pravidel a podmínek. Owner má právo kdykoliv změnit pravidla tohoto trackeru.

    [ Script trval: 0.025 sec. ] - [ GZIP: enabled ]
    BtiTracker (1.4.8) by Btiteam
    Je zhruba 22:59

    TOPlist