Tvoj účet nieje VIP.
Preto sú tvoje funkcie a možnosti značne obmedzené.
Pre aktiváciu VIP klikni sem.

Mob Psycho 100 - 1. serie (2016)(JP/EN+SKtit.)[1080p] = CSFD 83% | SkTorrent.eu

Cz-SkTorrent open Tracker, na volné zdieľanie súborov. Pridajte sa k našej komunite a získajte prístup k tisícom torrentov.

  • vysoká rýchlosť
  • úplne zdarma
  • prevažne Slovenská a Česká scéna
  • ste tu s nami už 10 rokov - Ďakujeme
  • Vitaj Guest (Login) Ako stahovat
    torrenty?
    Torrenty:
    v1 textová
    v2 obrázková
    Ako sa stat
    Uploaderom
    Online
    Filmy
    Forum
    Pravidlá
    SkTSocial
    BitTorrent
    klient
    Meno: Heslo:
    Zaregistrovat
    Po zaregistrovaní mozte volne stahovat
    Zabudol som heslo

    Mob Psycho 100 - 1. serie (2016)(JP/EN+SKtit.)[1080p] = CSFD 83% Názov:Mob Psycho 100 - 1. serie (2016)(JP/EN+SKtit.)[1080p] = CSFD 83% Hodnocení:N/A Stiahnut
    Pozriet Online
    Kategória:Seriál - Velikost:4.7 GB BitTorrent klient
    Pridaný: Súbory:
    Skontrolován:2023-01-23 Peerov:0 (Seed: 0, Leech: 0)
    Zaner:Akcni,Animovany,Fantasy,Komedie Uploader:Uvidis, az ked budes
    VIP
    Kúp nám Pivo 1,10€

    Kúp nám Pivo

    Pridaj do zalozky
    Pridaj do zalozky




    Mob Psycho 100 – 1. série (2016)  = CSFD 83%



           

    Jazyk: japonský, anglický
    Titulky: slovenské, anglické
    Žáner: Animovaný / Akční / Fantasy / Komedie
    Japonsko, 2016, 12x25 min

    Režie: Juzuru Tačikawa
    Předloha: One (komiks)
    Scénář: Hiroši Seko
    Kamera: Mayuko Furumoto
    Hudba: Kendži Kawai
    Dabing: Secuo Itó, Takahiro Sakurai, Akio Ócuka, Miju Irino, Jú Hajaši, Kóiči Makišima, Tošihiko Seki, Jošicugu Macuoka, Seiičiró Jamašita,...

    Popis
    Kageyama Shigeo, kterému všichni říkají "Mob", je student s nadpřirozenými schopnostmi - dokáže silou vůle zvedat předměty nebo třeba ohýbat lžičky. Když byl mladší, svoji schopnost rád ukazoval. Ale kvůli negativním ohlasům postupně přestal své schopnosti předvádět. Nyní je jeho jedinou starostí, aby si ho všimla jeho hezká spolužačka a ničit zlé duchy s jeho "mistrem"/podvodníkem.





       

    Hlavní
    Format: Matroska
    Format version: Version 4
    File size: 406 MiB
    Duration: 24 min 11 s
    Overall bit rate: 2 346 kb/s
    Encoded date: UTC 2022-10-30 08:20:46
    Writing application: mkvmerge v64.0.0 ('Willows') 64-bit
    Writing library: libebml v1.4.2 + libmatroska v1.6.4 / Lavf58.29.100
    Attachments: Aero Matics Bold.ttf / Aladin Regular.TTF / ArchitectsDaughter.ttf / BrushType.ttf / CONSTANB.TTF / DCPRyuuMoji-W12.ttf / disco.ttf / Hand Of Sean Pro.otf / HannaHandwriting.ttf / IgniteTheLight.ttf / LEHN139.TTF / Montara-Bold.otf / Montara-Gothic.ttf / Montara-Italic_0.ttf / PaperJohnnyEins-Regular.otf / Psycho Numbers.ttf / RaysHand Regular.ttf / ROCCB___.TTF

    Video
    Format: HEVC
    Format/Info: High Efficiency Video Coding
    Format profile: Main 10@L5@Main
    Codec ID: V_MPEGH/ISO/HEVC
    Duration: 24 min 11 s
    Bit rate: 2 122 kb/s
    Width: 1 920 pixels
    Height: 1 080 pixels
    Display aspect ratio: 16:9
    Frame rate mode: Constant
    Frame rate: 23.976 (24000/1001) FPS
    Color space: YUV
    Chroma subsampling: 4:2:0
    Bit depth: 10 bits
    Bits/(Pixel*Frame): 0.043
    Stream size: 367 MiB (90%)
    Title: [Judas] x265 10b
    Writing library: x265 3.2+35-acc5d16999e2:[Windows][GCC 9.2.1][64 bit] 10bit
    no-scenecut-aware-qpconformance-window-offsets / right=0 / bottom=0
    Default: No
    Forced: No
    Color range: Limited

    Audio #1
    Format: Opus
    Codec ID: A_OPUS
    Duration: 24 min 10 s
    Bit rate: 106 kb/s
    Channel(s): 2 channels
    Channel layout: L R
    Sampling rate: 48.0 kHz
    Frame rate: 49.998 FPS (960 SPF)
    Compression mode: Lossy
    Stream size: 18.3 MiB (5%)
    Title: [Judas] JAP Stereo (Opus 112Kbps)
    Writing library: Lavc58.54.100 libopus
    Language: Japanese
    Default: No
    Forced: No

    Audio #2
    Format: Opus
    Codec ID: A_OPUS
    Duration: 24 min 10 s
    Bit rate: 100 kb/s
    Channel(s): 2 channels
    Channel layout: L R
    Sampling rate: 48.0 kHz
    Frame rate: 50.000 FPS (960 SPF)
    Compression mode: Lossy
    Delay relative to video: 26 ms
    Stream size: 17.4 MiB (4%)
    Title: [Judas] ENG Stereo (Opus 112Kbps)
    Writing library: Lavc58.54.100 libopus
    Language: English
    Default: No
    Forced: No

    Text #1
    Format: ASS
    Codec ID: S_TEXT/ASS
    Codec ID/Info: Advanced Sub Station Alpha
    Duration: 22 min 29 s
    Bit rate: 140 b/s
    Count of elements: 451
    Compression mode: Lossless
    Stream size: 23.2 KiB (0%)
    Language: Slovak
    Default: Yes
    Forced: No

    Text #2
    Format: ASS
    Codec ID: S_TEXT/ASS
    Codec ID/Info: Advanced Sub Station Alpha
    Duration: 22 min 24 s
    Bit rate: 4 466 b/s
    Count of elements: 6374
    Compression mode: Lossless
    Stream size: 733 KiB (0%)
    Title: English [Full] (0x539/kBaraka)
    Language: English
    Default: No
    Forced: No


    Pre lepšie vyhľadávanie anime na webe SKT si nastavte vo vyhľadávaní kategóriu Animovany










    + Pridaj vlastnu verziu tohto torrentu +


    Upozornenie:
    Ziadny zo zobrazených súborov sa nenachádza na tomto serveri. Server slúzi len k síreniu vlastnorucne vytvorených aplikácií, videí, hudby ai. Autori stránok nenesú ziadnu zodpovednost za zverejnené odkazy, komentáre a obsah súborov. Vsetky komentáre, odkazy, súbory ktoré by svojou povahou mohli byt v rozpore zo zákonmi sem vkladáte na vlastnú zodpovednost. Autori stránok si vyhradzujú právo cenzúry odkazov, komentárov príp. súborov, ktoré by svojou povahou mohli byt v rozpore zo zákonmi a dobrými mravmi. Dodrzujte pravidlá!


    No comments...


    Back

    Na serveru se nenalézají zádne soubory. Za odkazy jsou výhradně zodpovědní uzivatelé a návstěvníci tohoto trackeru. Administrátor není zodpovědný za pridaný obsah ani za skody zpusobené uzivateli. Nesmíte pouzívat tuto webovou stránku pro distribuovaní nebo download zádného materiálu pokud nemáte povolení od príslusného vlastníka práv. Uzivatelé jsou zodpovědní za dodrzování těchto pravidel a podmínek. Owner má právo kdykoliv změnit pravidla tohoto trackeru.

    [ Script trval: 0.081 sec. ] - [ GZIP: enabled ]
    Je zhruba 12:30
    memcache

    TOPlist