Tvoj účet nieje VIP.
Preto sú tvoje funkcie a možnosti značne obmedzené.
Pre aktiváciu VIP klikni sem.

Mob Psycho 100 - 2. serie (2019)(JP/EN+SKtit.)[1080p] = CSFD 83% | SkTorrent.eu

Cz-SkTorrent open Tracker, na volné zdieľanie súborov. Pridajte sa k našej komunite a získajte prístup k tisícom torrentov.

  • vysoká rýchlosť
  • úplne zdarma
  • prevažne Slovenská a Česká scéna
  • ste tu s nami už 10 rokov - Ďakujeme
  • Vitaj Guest (Login) Ako stahovat
    torrenty?
    Torrenty:
    v1 textová
    v2 obrázková
    Ako sa stat
    Uploaderom
    Online
    Filmy
    Forum
    Pravidlá
    SkTSocial
    BitTorrent
    klient
    Meno: Heslo:
    Zaregistrovat
    Po zaregistrovaní mozte volne stahovat
    Zabudol som heslo

    Mob Psycho 100 - 2. serie (2019)(JP/EN+SKtit.)[1080p] = CSFD 83% Názov:Mob Psycho 100 - 2. serie (2019)(JP/EN+SKtit.)[1080p] = CSFD 83% Hodnocení:N/A Stiahnut
    Pozriet Online
    Kategória:Seriál - Velikost:4.6 GB BitTorrent klient
    Pridaný: Súbory:
    Skontrolován:2023-01-23 Peerov:0 (Seed: 0, Leech: 0)
    Zaner:Akcni,Animovany,Fantasy,Komedie Uploader:Uvidis, az ked budes
    VIP
    Kúp nám Pivo 1,10€

    Kúp nám Pivo

    Pridaj do zalozky
    Pridaj do zalozky




    Mob Psycho 100 – 2. série (2019)  = CSFD 83%



           

    Jazyk: japonský, anglický
    Titulky: slovenské, anglické
    Žáner: Animovaný / Akční / Fantasy / Komedie
    Japonsko, 2019, 13x25 min

    Režie: Juzuru Tačikawa, Hiroši Takeuči, Takefumi Anzai,...
    Předloha: One (komiks)
    Scénář: Hiroši Seko, Juzuru Tačikawa
    Kamera: Mayuko Furumoto
    Hudba: Kendži Kawai
    Dabing:  Takahiro Sakurai, Akio Ócuka, Miju Irino, Jošicugu Macuoka, Secuo Itó, Terujuki Tanzawa, Ajumi Fudžimura, Taiten Kusunoki, Sači Kokurjú,...

    Popis
    Kageyama Shigeo, kterému všichni říkají "Mob", je student s nadpřirozenými schopnostmi - dokáže silou vůle zvedat předměty nebo třeba ohýbat lžičky. Když byl mladší, svoji schopnost rád ukazoval. Ale kvůli negativním ohlasům postupně přestal své schopnosti předvádět. Nyní je jeho jedinou starostí, aby si ho všimla jeho hezká spolužačka a ničit zlé duchy s jeho "mistrem"/podvodníkem.

    Predtým si pozri
    1. Mob Psycho 100 - 1. séria





       

    Hlavní
    Format: Matroska
    Format version: Version 4
    File size: 366 MiB
    Duration: 24 min 12 s
    Overall bit rate: 2 115 kb/s
    Encoded date: UTC 2022-11-13 12:17:54
    Writing application: mkvmerge v64.0.0 ('Willows') 64-bit
    Writing library: libebml v1.4.2 + libmatroska v1.6.4 / Lavf58.29.100

    Video
    Format: HEVC
    Format/Info: High Efficiency Video Coding
    Format profile: Main 10@L5@Main
    Codec ID: V_MPEGH/ISO/HEVC
    Duration: 24 min 12 s
    Bit rate: 1 902 kb/s
    Width: 1 920 pixels
    Height: 1 080 pixels
    Display aspect ratio: 16:9
    Frame rate mode: Variable
    Frame rate: 23.976 FPS
    Color space: YUV
    Chroma subsampling: 4:2:0
    Bit depth: 10 bits
    Bits/(Pixel*Frame): 0.038
    Stream size: 329 MiB (90%)
    Title: [Judas] x265 10b
    Writing library: x265 3.2+35-acc5d16999e2:[Windows][GCC 9.2.1][64 bit] 10bit
    Default: No
    Forced: No
    Color range: Limited

    Audio #1

    ID in the original source medium: 4353 (0x1101)
    Format: Opus
    Codec ID: A_OPUS
    Duration: 24 min 11 s
    Bit rate: 107 kb/s
    Channel(s): 2 channels
    Channel layout: L R
    Sampling rate: 48.0 kHz
    Frame rate: 49.998 FPS (960 SPF)
    Compression mode: Lossy
    Stream size: 18.6 MiB (5%)
    Title: [Judas] JAP Stereo (Opus 112Kbps)
    Writing library: Lavc58.54.100 libopus
    Language: Japanese
    Default: No
    Forced: No
    Original source medium: Blu-ray

    Audio #2
    ID in the original source medium: 4352 (0x1100)
    Format: Opus
    Codec ID: A_OPUS
    Duration: 24 min 11 s
    Bit rate: 102 kb/s
    Channel(s): 2 channels
    Channel layout: L R
    Sampling rate: 48.0 kHz
    Frame rate: 49.998 FPS (960 SPF)
    Compression mode: Lossy
    Stream size: 17.6 MiB (5%)
    Title: [Judas] ENG Stereo (Opus 112Kbps)
    Writing library: Lavc58.54.100 libopus
    Language: English
    Default: No
    Forced: No
    Original source medium: Blu-ray

    Text #1
    Format: ASS
    Codec ID: S_TEXT/ASS
    Codec ID/Info: Advanced Sub Station Alpha
    Duration: 24 min 10 s
    Bit rate: 134 b/s
    Count of elements: 435
    Compression mode: Lossless
    Stream size: 23.9 KiB (0%)
    Language: Slovak
    Default: Yes
    Forced: No

    Text #2
    Format: ASS
    Codec ID: S_TEXT/ASS
    Codec ID/Info: Advanced Sub Station Alpha
    Duration: 24 min 9 s
    Bit rate: 180 b/s
    Count of elements: 432
    Compression mode: Lossless
    Stream size: 32.0 KiB (0%)
    Title: English
    Language: English
    Default: No
    Forced: No


    Pre lepšie vyhľadávanie anime na webe SKT si nastavte vo vyhľadávaní kategóriu Animovany










    + Pridaj vlastnu verziu tohto torrentu +


    Upozornenie:
    Ziadny zo zobrazených súborov sa nenachádza na tomto serveri. Server slúzi len k síreniu vlastnorucne vytvorených aplikácií, videí, hudby ai. Autori stránok nenesú ziadnu zodpovednost za zverejnené odkazy, komentáre a obsah súborov. Vsetky komentáre, odkazy, súbory ktoré by svojou povahou mohli byt v rozpore zo zákonmi sem vkladáte na vlastnú zodpovednost. Autori stránok si vyhradzujú právo cenzúry odkazov, komentárov príp. súborov, ktoré by svojou povahou mohli byt v rozpore zo zákonmi a dobrými mravmi. Dodrzujte pravidlá!


    No comments...


    Back

    Na serveru se nenalézají zádne soubory. Za odkazy jsou výhradně zodpovědní uzivatelé a návstěvníci tohoto trackeru. Administrátor není zodpovědný za pridaný obsah ani za skody zpusobené uzivateli. Nesmíte pouzívat tuto webovou stránku pro distribuovaní nebo download zádného materiálu pokud nemáte povolení od príslusného vlastníka práv. Uzivatelé jsou zodpovědní za dodrzování těchto pravidel a podmínek. Owner má právo kdykoliv změnit pravidla tohoto trackeru.

    [ Script trval: 0.088 sec. ] - [ GZIP: enabled ]
    Je zhruba 11:03
    memcache

    TOPlist