Tvoj účet nieje VIP.
Preto sú tvoje funkcie a možnosti značne obmedzené.
Pre aktiváciu VIP klikni sem.

Mob Psycho 100 - 3. serie (2022)(JP/EN+CZtit.)[1080p] = CSFD 83% | SkTorrent.eu

Cz-SkTorrent open Tracker, na volné zdieľanie súborov. Pridajte sa k našej komunite a získajte prístup k tisícom torrentov.

  • vysoká rýchlosť
  • úplne zdarma
  • prevažne Slovenská a Česká scéna
  • ste tu s nami už 10 rokov - Ďakujeme
  • Vitaj Guest (Login) Ako stahovat
    torrenty?
    Torrenty:
    v1 textová
    v2 obrázková
    Ako sa stat
    Uploaderom
    Online
    Filmy
    Forum
    Pravidlá
    SkTSocial
    BitTorrent
    klient
    Meno: Heslo:
    Zaregistrovat
    Po zaregistrovaní mozte volne stahovat
    Zabudol som heslo

    Mob Psycho 100 - 3. serie (2022)(JP/EN+CZtit.)[1080p] = CSFD 83% Názov:Mob Psycho 100 - 3. serie (2022)(JP/EN+CZtit.)[1080p] = CSFD 83% Hodnocení:N/A Stiahnut
    Pozriet Online
    Kategória:Seriál - Velikost:5.2 GB BitTorrent klient
    Pridaný: Súbory:
    Skontrolován:2023-01-23 Peerov:2 (Seed: 2, Leech: 0)
    Zaner:Akcni,Animovany,Fantasy,Komedie Uploader:Uvidis, az ked budes
    VIP
    Kúp nám Pivo 1,10€

    Kúp nám Pivo

    Pridaj do zalozky
    Pridaj do zalozky




    Mob Psycho 100 – 3. série (2022)  = CSFD 83%



           

    Jazyk: japonský, anglický
    Titulky: české, anglické
    Zdroj českých tituliek: hiyori.cz - TeamYoru
    Žáner: Animovaný / Akční / Fantasy / Komedie
    Japonsko, 2022, 12x25 min

    Režie: Juzuru Tačikawa, Takahiro Hasui, Tomomi Kamija, Kacuja Šigehara
    Předloha: One (komiks)
    Scénář: Juzuru Tačikawa, Takahiro Hasui, Tomomi Kamija, Kacuja Šigehara
    Kamera: Mayuko Furumoto
    Hudba: Kendži Kawai
    Dabing: Secuo Itó, Takahiro Sakurai, Akio Ócuka, Tošihiko Seki, Jošicugu Macuoka, Miju Irino, Acumi Tanezaki, Jú Šimamura, Jošimasa Hosoja, Takanori Hošino,...

    Popis
    Kageyama Shigeo, kterému všichni říkají "Mob", je student s nadpřirozenými schopnostmi - dokáže silou vůle zvedat předměty nebo třeba ohýbat lžičky. Když byl mladší, svoji schopnost rád ukazoval. Ale kvůli negativním ohlasům postupně přestal své schopnosti předvádět. Nyní je jeho jedinou starostí, aby si ho všimla jeho hezká spolužačka a ničit zlé duchy s jeho "mistrem"/podvodníkem.

    Predtým si pozri
    1. Mob Psycho 100 - 1. séria
    2. Mob Psycho 100 - 2. séria





       

    Hlavní
    Format: Matroska
    Format version: Version 4
    File size: 404 MiB
    Duration: 23 min 40 s
    Overall bit rate: 2 388 kb/s
    Encoded date: UTC 2022-11-27 13:59:58
    Writing application: mkvmerge v64.0.0 ('Willows') 64-bit
    Writing library: libebml v1.4.2 + libmatroska v1.6.4
    Attachments: AdobeArabic-Bold.otf / AdobeArabic-BoldItalic.otf / AdobeArabic-Italic.otf / AdobeArabic-Regular.otf / Arial_0.ttf / arialbd.ttf / arialbi.ttf / ariblk_0.ttf / calibri.ttf / comic_0.ttf / comicbd.ttf / georgia_0.ttf / georgiab.ttf / georgiaz.ttf / impact_0.ttf / Tahoma_0.ttf / times_0.ttf / trebuc_0.ttf / verdana_0.ttf

    Video
    Format: HEVC
    Format/Info: High Efficiency Video Coding
    Format profile: Main 10@L4@Main
    Codec ID: V_MPEGH/ISO/HEVC
    Duration: 23 min 40 s
    Bit rate: 1 988 kb/s
    Width: 1 920 pixels
    Height: 1 080 pixels
    Display aspect ratio: 16:9
    Frame rate mode: Constant
    Frame rate: 23.976 (24000/1001) FPS
    Color space: YUV
    Chroma subsampling: 4:2:0
    Bit depth: 10 bits
    Bits/(Pixel*Frame): 0.040
    Stream size: 336 MiB (83%)
    Writing library: x265 3.4+70-90fa80a85:[DJATOM's Mod][Windows][GCC 10.2.1][64 bit] 10bit
    Default: Yes
    Forced: No

    Audio #1
    Format: AAC LC
    Format/Info: Advanced Audio Codec Low Complexity
    Codec ID: A_AAC-2
    Duration: 23 min 40 s
    Bit rate: 99.3 kb/s
    Channel(s): 2 channels
    Channel layout: L R
    Sampling rate: 44.1 kHz
    Frame rate: 43.066 FPS (1024 SPF)
    Compression mode: Lossy
    Delay relative to video: 22 ms
    Stream size: 16.8 MiB (4%)
    Title: Japanese
    Language: Japanese
    Default: Yes
    Forced: No

    Audio #2
    Format: AAC LC
    Format/Info: Advanced Audio Codec Low Complexity
    Codec ID: A_AAC-2
    Duration: 23 min 40 s
    Bit rate: 256 kb/s
    Channel(s): 2 channels
    Channel layout: L R
    Sampling rate: 48.0 kHz
    Frame rate: 46.875 FPS (1024 SPF)
    Compression mode: Lossy
    Delay relative to video: 19 ms
    Stream size: 43.3 MiB (11%)
    Title: English
    Language: English
    Default: No
    Forced: No

    Text #1
    Format: ASS
    Codec ID: S_TEXT/ASS
    Codec ID/Info: Advanced Sub Station Alpha
    Duration: 23 min 39 s
    Bit rate: 206 b/s
    Count of elements: 445
    Compression mode: Lossless
    Stream size: 35.7 KiB (0%)
    Language: Czech
    Default: Yes
    Forced: No

    Text #2
    Format: ASS
    Codec ID: S_TEXT/ASS
    Codec ID/Info: Advanced Sub Station Alpha
    Duration: 23 min 39 s
    Bit rate: 235 b/s
    Count of elements: 460
    Compression mode: Lossless
    Stream size: 40.8 KiB (0%)
    Title: English
    Language: English
    Default: No
    Forced: No


    Pre lepšie vyhľadávanie anime na webe SKT si nastavte vo vyhľadávaní kategóriu Animovany










    + Pridaj vlastnu verziu tohto torrentu +


    Upozornenie:
    Ziadny zo zobrazených súborov sa nenachádza na tomto serveri. Server slúzi len k síreniu vlastnorucne vytvorených aplikácií, videí, hudby ai. Autori stránok nenesú ziadnu zodpovednost za zverejnené odkazy, komentáre a obsah súborov. Vsetky komentáre, odkazy, súbory ktoré by svojou povahou mohli byt v rozpore zo zákonmi sem vkladáte na vlastnú zodpovednost. Autori stránok si vyhradzujú právo cenzúry odkazov, komentárov príp. súborov, ktoré by svojou povahou mohli byt v rozpore zo zákonmi a dobrými mravmi. Dodrzujte pravidlá!


    No comments...


    Back

    Na serveru se nenalézají zádne soubory. Za odkazy jsou výhradně zodpovědní uzivatelé a návstěvníci tohoto trackeru. Administrátor není zodpovědný za pridaný obsah ani za skody zpusobené uzivateli. Nesmíte pouzívat tuto webovou stránku pro distribuovaní nebo download zádného materiálu pokud nemáte povolení od príslusného vlastníka práv. Uzivatelé jsou zodpovědní za dodrzování těchto pravidel a podmínek. Owner má právo kdykoliv změnit pravidla tohoto trackeru.

    [ Script trval: 0.109 sec. ] - [ GZIP: enabled ]
    Je zhruba 11:04
    memcache

    TOPlist