Tvoj účet nieje VIP.
Preto sú tvoje funkcie a možnosti značne obmedzené.
Pre aktiváciu VIP klikni sem.

Monstrum / Cloverfield (2008)(CZ/EN)(2160p 4K BDRemux)(DolbyVision - HDR10) = CSFD 72% | SkTorrent.eu

Cz-SkTorrent open Tracker, na volné zdieľanie súborov. Pridajte sa k našej komunite a získajte prístup k tisícom torrentov.

  • vysoká rýchlosť
  • úplne zdarma
  • prevažne Slovenská a Česká scéna
  • ste tu s nami už 10 rokov - Ďakujeme
  • Vitaj Guest (Login) Ako stahovat
    torrenty?
    Torrenty:
    v1 textová
    v2 obrázková
    Ako sa stat
    Uploaderom
    Online
    Filmy
    Forum
    Pravidlá
    SkTSocial
    BitTorrent
    klient
    Meno: Heslo:
    Zaregistrovat
    Po zaregistrovaní mozte volne stahovat
    Zabudol som heslo

    Monstrum / Cloverfield (2008)(CZ/EN)(2160p 4K BDRemux)(DolbyVision - HDR10) = CSFD 72% Názov:Monstrum / Cloverfield (2008)(CZ/EN)(2160p 4K BDRemux)(DolbyVision - HDR10) = CSFD 72% Hodnocení: Stiahnut
    Pozriet Online
    Kategória:UHD Filmy - Velikost:50.3 GB BitTorrent klient
    Pridaný: Súbory:
    Skontrolován:2024-07-07 Peerov:11 (Seed: 11, Leech: 0)
    Zaner:Horor,Mysteriozni,Sci-Fi,Thriller Uploader:Uvidis, az ked budes
    VIP
    Kúp nám Pivo 1,10€

    Kúp nám Pivo

    Pridaj do zalozky
    Pridaj do zalozky






    CLOVERFIELD

    Monstrum

    (2008)(CZ/EN) = CSFD 72%


    2160p 4K UHD DV BDRemux – 85.1 Mb/s Bitrate verzia









    Video: 2160p 4K UHD - Dolby Vision - HDR10
    Jazyk: CZ 5.1 DD / EN 5.1 DD / EN 5.1 Dolby TrueHD
    Titulky: CZ / EN
    Sci-Fi / Thriller / Mysteriozni / Horror
    USA  2008
    84 min


    PRODUKCE & HERCI


    Režie: Matt Reeves
    Scénář: Drew Goddard
    Kamera: Michael Bonvillain
    Hrají: Michael Stahl-David, Lizzy Caplan, Jessica Lucas, T.J. Miller, Mike Vogel, Odette Annable, Anjul Nigam, Margot Farley, Theo Rossi, Brian Klugman, Kelvin Yu, Liza Lapira, Lili Mirojnick, Ben Feldman, Elena Nikitina Bick, Rob Kerkovich, Charlyne Yi, Rick Overton, Jason Cerbone, Pasha D. Lychnikoff, Chris Mulkey, Susse Budde, Tim Griffin, Billy Brown, Will Greenberg, Jake McLaughlin, Scott Lawrence, Jamie Martz, Baron Vaughn, Hisonni Johnson, Caley Bisson, James Huffman



    OBSAH

    V útulném newyorském klubu probíhá párty na rozloučenou. Jejím aktérem je Rob, který se rozhodl dát sbohem městu přezdívanému Big Apple a odjet pracovat do Japonska. Zábava je v plném proudu, digitální kamera snímá rozjařené tváře Robových přátel, jenže pak vše razancí blesku přeruší výpadek proudu a zlověstný neidentifikovatelný zvuk, který se rozléhá nad městem. Dodávka elektřiny se sice po chvíli obnoví, ale úleva je jen dočasná. Zatímco televizní reportéři spekulují o zemětřesení nebo jiné přírodní katastrofě, nedaleký horizont ozařuje mohutná exploze, znovu doprovázená tím podivným zvukem připomínajícím kvílení nějakého pravěkého monstra. Párty razantně končí, nastává panika. Špatně se ale utíká, když netušíte před čím prcháte.


    SCREEN




    TRAILER




    Formát                                   : Matroska
    Format version                           : Version 4
    Velikost souboru                         : 50,3 GiB
    Duration                                 : 1 h 24 min
    Overall bit rate mode                    : Variable
    Celkový BitRate                          : 85,1 Mb/s
    Encoded date                             : UTC 2024-07-06 14:42:24
    Použitý software                         : mkvmerge v82.0 ('I'm The President') 64-bit
    Enkódoval                                : libebml v1.4.5 + libmatroska v1.7.1
    IMDB                                     : tt1060277
    TMDB                                     : movie/7191

    Video
    ID                                       : 1
    ID in the original source medium         : 4113 (0x1011)
    Formát                                   : HEVC
    Formát/Info                              : High Efficiency Video Coding
    Format profile                           : Main 10@L5.1@High
    HDR format                               : Dolby Vision, Version 1.0, dvhe.07.06, BL+EL+RPU, Blu-ray compatible / SMPTE ST 2086, HDR10 compatible
    Codec ID                                 : V_MPEGH/ISO/HEVC
    Duration                                 : 1 h 24 min
    Bit rate                                 : 80,2 Mb/s
    Šířka                                    : 3 840pixely
    Výška                                    : 2 160pixely
    Poměr stran                              : 16:9
    Frame rate mode                          : Constant
    Frame rate                               : 23,976 (24000/1001) FPS
    Color space                              : YUV
    Chroma subsampling                       : 4:2:0 (Type 2)
    Bit depth                                : 10 bits
    Bits/(Pixel*Frame)                       : 0.403
    Stream size                              : 47,4 GiB (94%)
    Jazyk                                    : English
    Default                                  : Ano
    Forced                                   : Ne
    Color range                              : Limited
    Color primaries                          : BT.2020
    Transfer characteristics                 : PQ
    Matrix coefficients                      : BT.2020 non-constant
    Mastering display color primaries        : Display P3
    Mastering display luminance              : min: 0.0001 cd/m2, max: 1000 cd/m2
    Original source medium                   : Blu-ray

    Audio #1
    ID                                       : 2
    Formát                                   : MLP FBA
    Formát/Info                              : Meridian Lossless Packing FBA
    Commercial name                          : Dolby TrueHD
    Codec ID                                 : A_TRUEHD
    Duration                                 : 1 h 24 min
    Bit rate mode                            : Variable
    Bit rate                                 : 3 463 kb/s
    Maximum bit rate                         : 5 544 kb/s
    Kanál(y)                                 : 6 kanály
    Channel layout                           : L R C LFE Ls Rs
    Sampling rate                            : 48,0 kHz
    Frame rate                               : 1 200,000 FPS (40 SPF)
    Compression mode                         : Lossless
    Stream size                              : 2,05 GiB (4%)
    Jazyk                                    : English
    Default                                  : Ano
    Forced                                   : Ne

    Audio #2
    ID                                       : 3
    Formát                                   : AC-3
    Formát/Info                              : Audio Coding 3
    Commercial name                          : Dolby Digital
    Codec ID                                 : A_AC3
    Duration                                 : 1 h 24 min
    Bit rate mode                            : Constant
    Bit rate                                 : 640 kb/s
    Kanál(y)                                 : 6 kanály
    Channel layout                           : L R C LFE Ls Rs
    Sampling rate                            : 48,0 kHz
    Frame rate                               : 31,250 FPS (1536 SPF)
    Compression mode                         : Lossy
    Stream size                              : 388 MiB (1%)
    Jazyk                                    : English
    Service kind                             : Complete Main
    Default                                  : Ne
    Forced                                   : Ne

    Audio #3
    ID                                       : 4
    Formát                                   : AC-3
    Formát/Info                              : Audio Coding 3
    Commercial name                          : Dolby Digital
    Codec ID                                 : A_AC3
    Duration                                 : 1 h 24 min
    Bit rate mode                            : Constant
    Bit rate                                 : 640 kb/s
    Kanál(y)                                 : 6 kanály
    Channel layout                           : L R C LFE Ls Rs
    Sampling rate                            : 48,0 kHz
    Frame rate                               : 31,250 FPS (1536 SPF)
    Compression mode                         : Lossy
    Stream size                              : 388 MiB (1%)
    Jazyk                                    : Czech
    Service kind                             : Complete Main
    Default                                  : Ano
    Forced                                   : Ne

    Text #1
    ID                                       : 5
    Formát                                   : PGS
    Muxing mode                              : zlib
    Codec ID                                 : S_HDMV/PGS
    Codec ID/Info                            : Picture based subtitle format used on BDs/HD-DVDs
    Duration                                 : 1 h 11 min
    Bit rate                                 : 50,9 kb/s
    Count of elements                        : 2350
    Stream size                              : 26,1 MiB (0%)
    Jazyk                                    : English
    Default                                  : Ne
    Forced                                   : Ne

    Text #2
    ID                                       : 6
    Formát                                   : PGS
    Muxing mode                              : zlib
    Codec ID                                 : S_HDMV/PGS
    Codec ID/Info                            : Picture based subtitle format used on BDs/HD-DVDs
    Duration                                 : 1 h 12 min
    Bit rate                                 : 57,9 kb/s
    Count of elements                        : 2662
    Stream size                              : 29,9 MiB (0%)
    Jazyk                                    : English
    Default                                  : Ne
    Forced                                   : Ne

    Text #3
    ID                                       : 7
    Formát                                   : PGS
    Muxing mode                              : zlib
    Codec ID                                 : S_HDMV/PGS
    Codec ID/Info                            : Picture based subtitle format used on BDs/HD-DVDs
    Duration                                 : 1 h 23 min
    Bit rate                                 : 23,5 kb/s
    Count of elements                        : 2026
    Stream size                              : 14,1 MiB (0%)
    Jazyk                                    : Czech
    Default                                  : Ne
    Forced                                   : Ne

    Menu
    00:00:00.000                             : en:Kids! / Main Titles
    00:05:03.470                             : en:In The Park With Fritz
    00:09:41.372                             : en:A Soul Tormented
    00:15:02.360                             : en:"Naked Closeness"
    00:19:25.831                             : en:Cops and "Preverts"
    00:24:21.835                             : en:Blind Faith
    00:29:22.719                             : en:Studying Schmudying
    00:33:35.472                             : en:Bar Wars
    00:36:22.639                             : en:Joy of Joyriding
    00:41:25.274                             : enrugs, Sex And...
    00:45:28.434                             : en:...Revolution
    00:49:15.911                             : en:Life On The Road
    00:53:34.545                             : en:Car Trouble
    00:59:08.170                             : en:Apocalyptic Ennui
    01:06:55.553                             : en:"Far Out!"
    01:13:44.045                             : en:Mercy on Fritz / Credits





    VDAKA ZA BODY a SEEDUJTE






    ONLINE











    maysa33, Tokamak, joshi59, AG-Kronik, DEMOKLES, Threadt, eyrim22, paarek,

    + Pridaj vlastnu verziu tohto torrentu +


    Upozornenie:
    Ziadny zo zobrazených súborov sa nenachádza na tomto serveri. Server slúzi len k síreniu vlastnorucne vytvorených aplikácií, videí, hudby ai. Autori stránok nenesú ziadnu zodpovednost za zverejnené odkazy, komentáre a obsah súborov. Vsetky komentáre, odkazy, súbory ktoré by svojou povahou mohli byt v rozpore zo zákonmi sem vkladáte na vlastnú zodpovednost. Autori stránok si vyhradzujú právo cenzúry odkazov, komentárov príp. súborov, ktoré by svojou povahou mohli byt v rozpore zo zákonmi a dobrými mravmi. Dodrzujte pravidlá!


    No comments...


    Back

    Na serveru se nenalézají zádne soubory. Za odkazy jsou výhradně zodpovědní uzivatelé a návstěvníci tohoto trackeru. Administrátor není zodpovědný za pridaný obsah ani za skody zpusobené uzivateli. Nesmíte pouzívat tuto webovou stránku pro distribuovaní nebo download zádného materiálu pokud nemáte povolení od príslusného vlastníka práv. Uzivatelé jsou zodpovědní za dodrzování těchto pravidel a podmínek. Owner má právo kdykoliv změnit pravidla tohoto trackeru.

    [ Script trval: 0.022 sec. ] - [ GZIP: enabled ]
    Je zhruba 05:13
    sql

    TOPlist