Tvoj účet nieje VIP.
Preto sú tvoje funkcie a možnosti značne obmedzené.
Pre aktiváciu VIP klikni sem.

Muj nepritel / Enemy Mine (1985)(Remastered)(BluRay)(1080p)(CZ/EN)) = CSFD 73% | SkTorrent.eu

Cz-SkTorrent open Tracker, na volné zdielanie súborov. Pridajte sa k nasej komunite a získajte pristup k tisícom torrentov.

  • vysoká rýchlost
  • úplne zdarma
  • prevazne Slovenska a Ceska scena
  • ste tu s nami uz 5 rokov - Dakujeme
  • Vitaj Guest (Login) Ako stahovat
    torrenty?
    Torrenty:
    v1 textová
    v2 obrázková
    v3 online filmy
    Ako sa stat
    Uploaderom
    Online
    Filmy
    Forum
    Pravidlá
    BitTorrent
    klient
    Meno: Heslo:
    Zaregistrovat
    Po zaregistrovaní mozte volne stahovat
    Zabudol som heslo

    Torrent's details
    Muj nepritel / Enemy Mine (1985)(Remastered)(BluRay)(1080p)(CZ/EN)) = CSFD 73% Názov:Muj nepritel / Enemy Mine (1985)(Remastered)(BluRay)(1080p)(CZ/EN)) = CSFD 73% Hodnocení: Stiahnut
    Pozriet Online
    Kategória:HD Filmy Velikost:4.4 GB BitTorrent klient
    Pridaný: Súbory:
    Skontrolován:2021-08-01 Peerov:9 (Seed: 9, Leech: 0)
    Zaner:Dobrodruzny,Drama,Sci-Fi Uploader:Uvidis, az ked budes
    VIP
    Kúp nám Pivo 1,10€

    Kúp nám Pivo
    Podporte nas na Facebooku !
    Pridaj do zalozky
    Pridaj do zalozky








    Muj nepritel / Enemy Mine (1985) (Remastered)
    BleRay (Verze 2016) rip CZ dabing DD 2.0 a
    EN DD 5.1 dabing + 2xCZ a EN titulky

                   










    Sci-Fi / Drama / Dobrodružný
    USA, 1985, 108 min
    Režie: Wolfgang Petersen
    Scénář: Edward Khmara
    Kamera: Tony Imi
    Hudba: Maurice Jarre
    Hrají: Dennis Quaid, Louis Gossett Jr., Brion James, Richard Marcus, Carolyn McCormick, Lance Kerwin, Barry Stokes, Peter Jurasik, Herb Andress,




    V jednadvacátém století konečně všechny státy země spojily své duševní, nerostné i technologické bohatství, takže války jsou minulostí a mezigalaktické lety realitou dne. Lidstvo se tak vrhá na nekonečnou objevitelskou pouť po vesmíru. Naneštěstí však nejsou v kosmu sami. Rasa oboupohlavních dobyvatelů, označovaných kvůli jejich vzhledu za Draky, stojí jedinému právoplatnému vlastníku hvězdného prostoru v cestě. A tak vypukne mnohaletá válka.

    Willis E. Davidge (Dennis Quaid) je mladý nadějný pilot bojové kosmické stíhačky. Při jednom vzdušném souboji s Draky se nechá unést zápalem boje a havaruje na zatím neprozkoumané planetě. Jeho kopilot následkem nehody umírá a tak se vzteky šílený Davidge vydá zabít Draka, jehož stroj také nedaleko dopadl. Ale není mu souzeno se pomstít. Život na planetě je těžký a nebezpečný a dva zmůžou víc než jeden. Drakovo jméno je Jeriba 'Jerry' Shigan (Louis Gossett Jr.) a vyznává drakskou víru, velmi podobnou Buddhismu a jiným východním filozofiím. Přes počáteční obtíže a nenávist se z obou mužů, respektive muže a draka, stanou přátelé. Jednoho dne Jerry zjistí, že čeká miminko, které pojmenuje Zammis (Bumper Robinson). A tím se pro všechny zúčastněné jejich život ze základu změní...








    Formát                                   : Matroska
    Format version                           : Version 4
    Velikost souboru                         : 4,38 GiB
    Duration                                 : 1 h 48 min
    Celkový BitRate                          : 5 792 kb/s
    Název filmu                              : Můj nepřítel - Enemy Mine (1985)(Remastered)(BluRay)(1080p)(CZ-EN) PHDTeam 2021
    Encoded date                             : UTC 2021-08-01 18:16:08
    Použitý software                         : mkvmerge v60.0.0 ('Are We Copies?') 64-bit
    Enkódoval                                : libebml v1.4.2 + libmatroska v1.6.4

    Video
    ID                                       : 1
    Formát                                   : AVC
    Formát/Info                              : Advanced Video Codec
    Format profile                           : Main@L4
    Format settings                          : CABAC / 4 Ref Frames
    Format settings, CABAC                   : Ano
    Format settings, Reference frames        : 4 frames
    Codec ID                                 : V_MPEG4/ISO/AVC
    Duration                                 : 1 h 48 min
    Bit rate                                 : 4 895 kb/s
    Šířka                                    : 1 920pixely
    Výška                                    : 808pixely
    Poměr stran                              : 2,40:1
    Frame rate mode                          : Variable
    Frame rate                               : 23,976 FPS
    Color space                              : YUV
    Chroma subsampling                       : 4:2:0
    Bit depth                                : 8 bits
    Scan type                                : Progressive
    Bits/(Pixel*Frame)                       : 0.132
    Stream size                              : 3,70 GiB (84%)
    Titul                                    : Můj nepřítel -Enemy Mine (1985)(Remastered)(BluRay)(1080p)(CZ-EN) PHDTeam
    Enkódoval                                : x264 core 148 r2643 5c65704
    Nastavení enkoderu                       : cabac=1 / ref=1 / deblock=1:0:0 / analyse=0x1:0x111 / me=hex / subme=2 / psy=1 / psy_rd=1,00:0,00 / mixed_ref=0 / me_range=16 / chroma_me=1 / trellis=0 / 8x8dct=0 / cqm=0 / deadzone=21,11 / fast_pskip=1 / chroma_qp_offset=0 / threads=3 / lookahead_threads=1 / sliced_threads=0 / nr=0 / decimate=1 / interlaced=0 / bluray_compat=0 / constrained_intra=0 / bframes=3 / b_pyramid=2 / b_adapt=1 / b_bias=0 / direct=1 / weightb=1 / open_gop=0 / weightp=1 / keyint=240 / keyint_min=24 / scenecut=40 / intra_refresh=0 / rc_lookahead=10 / rc=crf / mbtree=1 / crf=20,0 / qcomp=0,60 / qpmin=0 / qpmax=69 / qpstep=4 / vbv_maxrate=20000 / vbv_bufsize=25000 / crf_max=0,0 / nal_hrd=none / filler=0 / ip_ratio=1,40 / aq=1:1,00
    Default                                  : Ano
    Forced                                   : Ne
    Color range                              : Limited
    Color primaries                          : BT.709
    Transfer characteristics                 : BT.709
    Matrix coefficients                      : BT.709

    Audio #1
    ID                                       : 2
    Formát                                   : AC-3
    Formát/Info                              : Audio Coding 3
    Commercial name                          : Dolby Digital
    Codec ID                                 : A_AC3
    Duration                                 : 1 h 48 min
    Bit rate mode                            : Constant
    Bit rate                                 : 448 kb/s
    Kanál(y)                                 : 2 kanály
    Channel layout                           : L R
    Sampling rate                            : 48,0 kHz
    Frame rate                               : 31,250 FPS (1536 SPF)
    Compression mode                         : Lossy
    Video delay                              : 1 s 800 ms
    Stream size                              : 346 MiB (8%)
    Titul                                    : CZ AC3 DD 2.0
    Jazyk                                    : Czech
    Service kind                             : Complete Main
    Default                                  : Ano
    Forced                                   : Ne

    Audio #2
    ID                                       : 3
    Formát                                   : AC-3
    Formát/Info                              : Audio Coding 3
    Commercial name                          : Dolby Digital
    Codec ID                                 : A_AC3
    Duration                                 : 1 h 48 min
    Bit rate mode                            : Constant
    Bit rate                                 : 448 kb/s
    Kanál(y)                                 : 6 kanály
    Channel layout                           : L R C LFE Ls Rs
    Sampling rate                            : 48,0 kHz
    Frame rate                               : 31,250 FPS (1536 SPF)
    Compression mode                         : Lossy
    Stream size                              : 347 MiB (8%)
    Titul                                    : EN AC3 DD 5.1
    Jazyk                                    : English
    Service kind                             : Complete Main
    Default                                  : Ne
    Forced                                   : Ne

    Text #1
    ID                                       : 4
    Formát                                   : ASS
    Codec ID                                 : S_TEXT/ASS
    Codec ID/Info                            : Advanced Sub Station Alpha
    Duration                                 : 1 h 42 min
    Bit rate                                 : 63 b/s
    Count of elements                        : 1032
    Compression mode                         : Lossless
    Stream size                              : 47,7 KiB (0%)
    Titul                                    : EN tit
    Jazyk                                    : English
    Default                                  : Ne
    Forced                                   : Ne

    Text #2
    ID                                       : 5
    Formát                                   : UTF-8
    Codec ID                                 : S_TEXT/UTF8
    Codec ID/Info                            : UTF-8 Plain Text
    Duration                                 : 23 min 7 s
    Bit rate                                 : 20 b/s
    Count of elements                        : 93
    Stream size                              : 3,51 KiB (0%)
    Titul                                    : CZ tit
    Jazyk                                    : Czech
    Default                                  : Ano
    Forced                                   : Ano

    Text #3
    ID                                       : 6
    Formát                                   : UTF-8
    Codec ID                                 : S_TEXT/UTF8
    Codec ID/Info                            : UTF-8 Plain Text
    Duration                                 : 23 min 7 s
    Bit rate                                 : 20 b/s
    Count of elements                        : 93
    Stream size                              : 3,51 KiB (0%)
    Titul                                    : CZ tit
    Jazyk                                    : Czech
    Default                                  : Ano
    Forced                                   : Ano

    Text #4
    ID                                       : 7
    Formát                                   : UTF-8
    Codec ID                                 : S_TEXT/UTF8
    Codec ID/Info                            : UTF-8 Plain Text
    Duration                                 : 1 h 46 min
    Bit rate                                 : 29 b/s
    Count of elements                        : 680
    Stream size                              : 23,2 KiB (0%)
    Titul                                    : CZ tit
    Jazyk                                    : Czech
    Default                                  : Ne
    Forced                                   : Ne









    ONLINE




    Upozornenie:
    Ziadny zo zobrazených súborov sa nenachádza na tomto serveri. Server slúzi len k síreniu vlastnorucne vytvorených aplikácií, videí, hudby ai. Autori stránok nenesú ziadnu zodpovednost za zverejnené odkazy, komentáre a obsah súborov. Vsetky komentáre, odkazy, súbory ktoré by svojou povahou mohli byt v rozpore zo zákonmi sem vkladáte na vlastnú zodpovednost. Autori stránok si vyhradzujú právo cenzúry odkazov, komentárov príp. súborov, ktoré by svojou povahou mohli byt v rozpore zo zákonmi a dobrými mravmi. Dodrzujte pravidlá!


    No comments...


    Back

    Na serveru se nenalézají zádne soubory. Za odkazy jsou výhradně zodpovědní uzivatelé a návstěvníci tohoto trackeru. Administrátor není zodpovědný za pridaný obsah ani za skody zpusobené uzivateli. Rozsirovat stránku nebo její obsah bez souhlasu ownera je zakázano. Nesmíte pouzívat tuto webovou stránku pro distribuovaní nebo download zádného materiálu pokud nemáte povolení od príslusného vlastníka práv. Uzivatelé jsou zodpovědní za dodrzování těchto pravidel a podmínek. Owner má právo kdykoliv změnit pravidla tohoto trackeru.

    [ Script trval: 0.041 sec. ] - [ GZIP: enabled ]
    Je zhruba 15:51

    TOPlist